Важное объявление!
У Нас Все раздачи мультитрекерные, при нуле пиров в релизах, можете смело вставать на закачку!
 
Автор Сообщение

HUNTER

Стаж:
4 года 4 месяца
Сообщений:
56755

Репутация: 101

[+] [-]
Вне форума [Профиль] [ЛС]

Various Artists - Hardcore Euphoria
Жанр: UK Hardcore
Страна-производитель диска: UK
Год издания: 2006
Издатель (лейбл): Ministry Of Sound
Номер по каталогу: EUPCD19
Аудиокодек: FLAC (*.flac)
Тип рипа: image+.cue
Битрейт аудио: lossless
Продолжительность: 3:47:44
Источник (релизер): Диск из личной коллекции
Наличие сканов в содержимом раздачи: да
Треклист:
CD1: Mixed By Sy+Unknown (1:17:56)
01. Audiolush – Feel The Power (Sy & Unknown Remix) (4:15)
02. Paradise – Angel (Sy & Unknown Remix) (5:09)
03. Insight Feat. Amie Jayne – We Feel So High (Sy & Unknown Remix) (4:23)
04. Pulsonix – Lift Me Up (Sy & Unknown Remix) (4:23)
05. Nysee & Hinton Feat. Pascale – Silver Water (Sy & Unknown Remix) (2:12)
06. Fracus & Gavin G Feat. Lisa Abbott – Run From Me (Sy & Unknown Remix) (1:48)
07. Audiolush – Take Me Away (Sy & Unknown Remix) (2:12)
08. Jamie Ritmen – Amnesia (Sy & Unknown Remix) (1:50)
09. Insight – If That's Alright With You 2006 (2:35)
10. Joey Riot – Jumpin' Pumpin' (3:31)
11. Rocco – I Don't Know (Sy & Unknown Remix) (4:22)
12. Sy & Unknown Feat. Lou Lou (2) – Dancing In The Shadows (4:25)
13. Content X – You Heal Me (Sy & Unknown Remix) (5:07)
14. Sy & Unknown – Dangerzone (5:29)
15. Sy & Unknown – Product Of The Devil 2006 (4:22)
16. DJ Kurt – Beatz Control (1:50)
17. Sy & Unknown Feat. Lou Lou (2) – Just Close Your Mind (5:09)
18. Sy & Unknown – Closer To Heaven (4:12)
19. Sy & Unknown – Make It Bounce (Joey Riot & DJ Kurt Remix) (5:10)
20. Dandy Crouch Feat. Shelly – Emotions & Dreams (DJ Kurt Remix) (5:32)
CD2: Mixed By Dougal+Gammer (1:19:06)
01. Gammer & Cat Knight – A New Feeling (Let It Shine) (5:43)
02. Dougal & Gammer – Deadbeat (4:44)
03. Dougal, Gammer & Jenna – When I Close My Eyes (4:41)
04. Dougal & Gammer – The Beat, The Bass (3:18)
05. Dougal, Gammer & Lisa Abbot – Stop The Clock (5:28)
06. D:CODE Feat. Emma – My Direction (Dougal & Gammer Remix) (3:52)
07. Dougal & Gammer – This Is A Virus (4:23)
08. Kurt – Space Odyssey 2006 (3:43)
09. Dougal, Gammer & Lisa Marie (2) – Hold Me Close Tonight (5:11)
10. Trinity – In Dreams (Dougal & Gammer Remix) (3:27)
11. Dougal & Gammer – Pump Up The Noise 2006 (4:03)
12. DJ Fear And Lisa Abbot – Don't Walk Away (4:12)
13. Dougal & Gammer – Brainstorm (4:56)
14. Styles, Dougal & Lisa Marie (2) – Still The One (Gammers Muffin Mix) (4:07)
15. United In Dance – Boom Daka (3:33)
16. Marc Smith & Gammer – Pump This Party (4:08)
17. Cube::Hard – Music Of The Primes (Gammer Edit) (3:30)
18. Ensur – Calabria (Dougal & Gammer Remix) (1:40)
19. Transit – Count The Hours (Essential Platinum Marmite) (4:27)
CD3: Mixed By Brisk+Ham (1:10:42)
01. Brisk & Ham – Intro (1:09)
02. Brisk & Ham Feat. Lisa Marie (2) – Your Angel (2:31)
03. Brisk & Vagabond – Eurolove 2006 (2:04)
04. Ham – Listen To The Beat (1:59)
05. Eclipse Feat. Lisa Marie (2) – Hearts Desire (2:09)
06. Ham – Throw Your Hands Up (2:20)
07. Brisk & Vagabond – Hope & Pray (2:23)
08. MC Keyes – Take A Chance (Brisk & Vagabond Remix) (2:12)
09. Hujib – Over & Over (2:36)
10. Brisk & Vagabond – Hardcore Virus (3:12)
11. Euphoria Feat. Tais – Unseen Land (2:43)
12. Ham – Every Day Of My Life (2:53)
13. Brisk & Ham Feat. Lisa Marie (2) – Into Your Arms (Brisk & Vagabond Mix) (2:24)
14. Druid & Stormtrooper – Pump This Party (1:48)
15. Double Dutch – Dance & Spin (2:55)
16. Stormtrooper Feat. Reese – One More (2:31)
17. Supermode – Tell Me Why (Vagabond Remix) (2:12)
18. Hardcore Masif – Cold As Ice (Weaver & Suae Remix) (2:17)
19. Brisk & Vagabond – Into The Sunlight (2:42)
20. Acolyte, The & Sean Apollo – We Don't Stop (2:31)
21. Euphoria Feat. Tais – The Rush Is Mine (2:12)
22. Obie & Gammer – Keep Em Dancing (1:48)
23. Heaven 7 – Kontact DJ (2:31)
24. Scott Brown – Goodbye My Friend (2:09)
25. Solapse – Nobody Likes It (1:32)
26. Ham – Detonate This Sound (2:09)
27. Dreadhed – Too Damn High (2:31)
28. Brisk & Vagabond – Nation To Nation (3:01)
29. Tha Playah – Fuck The Titties (The Viper & Tommyknockers Remix) (2:53)
30. Hard Creation – I Will Have That Power 2006 (The Stunned Guys Remix) (2:25)

-

Лог создания рипа CD1

Exact Audio Copy V0.99 prebeta 4 from 23. January 2008
Отчёт EAC об извлечении, выполненном 14. марта 2013, 21:12
Various / Hardcore Euphoria (CD1) - Mixed by Sy + Unknown
Дисковод: Optiarc DVD RW AD-7261S Adapter: 1 ID: 1
Режим чтения : ДостоверностьИспользование точного потока : ДаОтключение кэша аудио : ДаИспользование указателей C2 : Нет
Коррекция смещения при чтении : 48Способность читать области Lead-in и Lead-out : НетЗаполнение пропущенных сэмплов тишиной : ДаУдаление блоков с тишиной в начале и конце : НетПри вычислениях CRC использовались нулевые сэмплы : ДаИнтерфейс : Встроенный Win32-интерфейс для Win NT/2000
Выходной формат : Внутренние WAV-операцииФормат сэмплов : 44.100 Гц; 16 бит; стерео
TOC извлечённого CD
Трек | Старт | Длительность | Начальный сектор | Конечный сектор --------------------------------------------------------------------- 1 | 0:00.00 | 4:14.53 | 0 | 19102 2 | 4:14.53 | 5:08.47 | 19103 | 42249 3 | 9:23.25 | 4:23.27 | 42250 | 62001 4 | 13:46.52 | 4:23.27 | 62002 | 81753 5 | 18:10.04 | 2:11.51 | 81754 | 91629 6 | 20:21.55 | 1:48.15 | 91630 | 99744 7 | 22:09.70 | 2:11.64 | 99745 | 109633 8 | 24:21.59 | 1:49.55 | 109634 | 117863 9 | 26:11.39 | 2:34.74 | 117864 | 129487 10 | 28:46.38 | 3:31.18 | 129488 | 145330 11 | 32:17.56 | 4:21.74 | 145331 | 164979 12 | 36:39.55 | 4:24.55 | 164980 | 184834 13 | 41:04.35 | 5:07.19 | 184835 | 207878 14 | 46:11.54 | 5:29.15 | 207879 | 232568 15 | 51:40.69 | 4:22.00 | 232569 | 252218 16 | 56:02.69 | 1:49.50 | 252219 | 260443 17 | 57:52.44 | 5:08.51 | 260444 | 283594 18 | 63:01.20 | 4:12.29 | 283595 | 302523 19 | 67:13.49 | 5:10.00 | 302524 | 325773 20 | 72:23.49 | 5:32.27 | 325774 | 350700
Характеристики диапазона извлечения и сообщения об ошибках
Выбранный диапазон
Имя файла C:\Users\Meijin\Desktop\Новая папка (4)\Various - Hardcore Euphoria (CD1) - Mixed by Sy + Unknown.wav
Пиковый уровень 98.9 % Качество диапазона 100.0 % CRC теста BDE3972E CRC копии BDE3972E Копирование... OK
Ошибок не произошло
AccurateRip: сводка
Трек 1 точное извлечение (доверие 11) [90208867]Трек 2 точное извлечение (доверие 11) [CAFC04BF]Трек 3 точное извлечение (доверие 10) [91EB3F54]Трек 4 точное извлечение (доверие 10) [32B8BE50]Трек 5 точное извлечение (доверие 10) [914BD322]Трек 6 точное извлечение (доверие 10) [16B946CA]Трек 7 точное извлечение (доверие 10) [26DF73DF]Трек 8 точное извлечение (доверие 9) [6F4683BC]Трек 9 точное извлечение (доверие 10) [1277D377]Трек 10 точное извлечение (доверие 10) [FC75215A]Трек 11 точное извлечение (доверие 10) [D761F3FB]Трек 12 точное извлечение (доверие 10) [C752DA82]Трек 13 точное извлечение (доверие 10) [E7DE3AF7]Трек 14 точное извлечение (доверие 9) [AF538A06]Трек 15 точное извлечение (доверие 10) [38FE6D5D]Трек 16 точное извлечение (доверие 10) [0CB74753]Трек 17 точное извлечение (доверие 10) [00929432]Трек 18 точное извлечение (доверие 10) [128F3544]Трек 19 точное извлечение (доверие 10) [425BAB36]Трек 20 точное извлечение (доверие 9) [32F01A5F]
Все треки извлечены точно
Конец отчёта

Лог создания рипа CD2

Exact Audio Copy V0.99 prebeta 4 from 23. January 2008
Отчёт EAC об извлечении, выполненном 14. марта 2013, 21:49
Various / Hardcore Euphoria (CD2) - Mixed By Dougal + Gammer
Дисковод: Optiarc DVD RW AD-7261S Adapter: 1 ID: 1
Режим чтения : ДостоверностьИспользование точного потока : ДаОтключение кэша аудио : ДаИспользование указателей C2 : Нет
Коррекция смещения при чтении : 48Способность читать области Lead-in и Lead-out : НетЗаполнение пропущенных сэмплов тишиной : ДаУдаление блоков с тишиной в начале и конце : НетПри вычислениях CRC использовались нулевые сэмплы : ДаИнтерфейс : Встроенный Win32-интерфейс для Win NT/2000
Выходной формат : Внутренние WAV-операцииФормат сэмплов : 44.100 Гц; 16 бит; стерео
TOC извлечённого CD
Трек | Старт | Длительность | Начальный сектор | Конечный сектор --------------------------------------------------------------------- 1 | 0:00.00 | 5:42.46 | 0 | 25695 2 | 5:42.46 | 4:43.70 | 25696 | 46990 3 | 10:26.41 | 4:41.14 | 46991 | 68079 4 | 15:07.55 | 3:17.39 | 68080 | 82893 5 | 18:25.19 | 5:27.62 | 82894 | 107480 6 | 23:53.06 | 3:51.61 | 107481 | 124866 7 | 27:44.67 | 4:23.27 | 124867 | 144618 8 | 32:08.19 | 3:42.42 | 144619 | 161310 9 | 35:50.61 | 5:11.34 | 161311 | 184669 10 | 41:02.20 | 3:27.10 | 184670 | 200204 11 | 44:29.30 | 4:02.58 | 200205 | 218412 12 | 48:32.13 | 4:12.29 | 218413 | 237341 13 | 52:44.42 | 4:56.21 | 237342 | 259562 14 | 57:40.63 | 4:06.42 | 259563 | 278054 15 | 61:47.30 | 3:32.72 | 278055 | 294026 16 | 65:20.27 | 4:08.23 | 294027 | 312649 17 | 69:28.50 | 3:29.63 | 312650 | 328387 18 | 72:58.38 | 1:40.27 | 328388 | 335914 19 | 74:38.65 | 4:26.62 | 335915 | 355926
Характеристики диапазона извлечения и сообщения об ошибках
Выбранный диапазон
Имя файла C:\Users\Meijin\Desktop\Новая папка (4)\Various - Hardcore Euphoria (CD2) - Mixed By Dougal + Gammer.wav
Пиковый уровень 100.0 % Качество диапазона 100.0 % CRC теста EF0233FA CRC копии EF0233FA Копирование... OK
Ошибок не произошло
AccurateRip: сводка
Трек 1 точное извлечение (доверие 10) [2DEF1626]Трек 2 точное извлечение (доверие 10) [2ADF49AA]Трек 3 точное извлечение (доверие 10) [90A688B0]Трек 4 точное извлечение (доверие 10) [ECBCB3BF]Трек 5 точное извлечение (доверие 10) [F324083C]Трек 6 точное извлечение (доверие 10) [4ED24B62]Трек 7 точное извлечение (доверие 10) [C9028497]Трек 8 точное извлечение (доверие 10) [3C57ACA7]Трек 9 точное извлечение (доверие 10) [47494C85]Трек 10 точное извлечение (доверие 10) [2468DE8C]Трек 11 точное извлечение (доверие 10) [BF13F67C]Трек 12 точное извлечение (доверие 10) [C0EE15B5]Трек 13 точное извлечение (доверие 10) [401BCA96]Трек 14 точное извлечение (доверие 10) [89B606DF]Трек 15 точное извлечение (доверие 10) [3F960448]Трек 16 точное извлечение (доверие 10) [281D0417]Трек 17 точное извлечение (доверие 10) [70F374F0]Трек 18 точное извлечение (доверие 10) [C0AC3590]Трек 19 точное извлечение (доверие 9) [4EC22D17]
Все треки извлечены точно
Конец отчёта

Лог создания рипа CD3

Exact Audio Copy V0.99 prebeta 4 from 23. January 2008
Отчёт EAC об извлечении, выполненном 14. марта 2013, 22:27
Various / Hardcore Euphoria (CD3) - Mixed by Brisk + Ham
Дисковод: Optiarc DVD RW AD-7261S Adapter: 1 ID: 1
Режим чтения : ДостоверностьИспользование точного потока : ДаОтключение кэша аудио : ДаИспользование указателей C2 : Нет
Коррекция смещения при чтении : 48Способность читать области Lead-in и Lead-out : НетЗаполнение пропущенных сэмплов тишиной : ДаУдаление блоков с тишиной в начале и конце : НетПри вычислениях CRC использовались нулевые сэмплы : ДаИнтерфейс : Встроенный Win32-интерфейс для Win NT/2000
Выходной формат : Внутренние WAV-операцииФормат сэмплов : 44.100 Гц; 16 бит; стерео
TOC извлечённого CD
Трек | Старт | Длительность | Начальный сектор | Конечный сектор --------------------------------------------------------------------- 1 | 0:00.00 | 1:09.31 | 0 | 5205 2 | 1:09.31 | 2:31.27 | 5206 | 16557 3 | 3:40.58 | 2:04.03 | 16558 | 25860 4 | 5:44.61 | 1:58.48 | 25861 | 34758 5 | 7:43.34 | 2:09.33 | 34759 | 44466 6 | 9:52.67 | 2:20.17 | 44467 | 54983 7 | 12:13.09 | 2:22.69 | 54984 | 65702 8 | 14:36.03 | 2:12.11 | 65703 | 75613 9 | 16:48.14 | 2:36.30 | 75614 | 87343 10 | 19:24.44 | 3:11.48 | 87344 | 101716 11 | 22:36.17 | 2:43.12 | 101717 | 113953 12 | 25:19.29 | 2:52.43 | 113954 | 126896 13 | 28:11.72 | 2:24.21 | 126897 | 137717 14 | 30:36.18 | 1:47.65 | 137718 | 145807 15 | 32:24.08 | 2:55.21 | 145808 | 158953 16 | 35:19.29 | 2:31.01 | 158954 | 170279 17 | 37:50.30 | 2:11.59 | 170280 | 180163 18 | 40:02.14 | 2:16.39 | 180164 | 190402 19 | 42:18.53 | 2:41.60 | 190403 | 202537 20 | 45:00.38 | 2:31.02 | 202538 | 213864 21 | 47:31.40 | 2:12.09 | 213865 | 223773 22 | 49:43.49 | 1:47.65 | 223774 | 231863 23 | 51:31.39 | 2:31.01 | 231864 | 243189 24 | 54:02.40 | 2:09.34 | 243190 | 252898 25 | 56:11.74 | 1:31.50 | 252899 | 259773 26 | 57:43.49 | 2:09.33 | 259774 | 269481 27 | 59:53.07 | 2:31.01 | 269482 | 280807 28 | 62:24.08 | 3:00.50 | 280808 | 294357 29 | 65:24.58 | 2:52.44 | 294358 | 307301 30 | 68:17.27 | 2:24.68 | 307302 | 318169
Характеристики диапазона извлечения и сообщения об ошибках
Выбранный диапазон
Имя файла C:\Users\Meijin\Desktop\Новая папка (4)\Various - Hardcore Euphoria (CD3) - Mixed by Brisk + Ham.wav
Пиковый уровень 100.0 % Качество диапазона 100.0 % CRC теста 91E37CA3 CRC копии 91E37CA3 Копирование... OK
Ошибок не произошло
AccurateRip: сводка
Трек 1 точное извлечение (доверие 11) [E2578338]Трек 2 точное извлечение (доверие 11) [EEB348F0]Трек 3 точное извлечение (доверие 11) [B1CB3ABD]Трек 4 точное извлечение (доверие 11) [CA13B141]Трек 5 точное извлечение (доверие 11) [82E21BBE]Трек 6 точное извлечение (доверие 11) [90474062]Трек 7 точное извлечение (доверие 11) [BF5715B9]Трек 8 точное извлечение (доверие 11) [0A28594C]Трек 9 точное извлечение (доверие 11) [A3BB8812]Трек 10 точное извлечение (доверие 11) [7A3B0007]Трек 11 точное извлечение (доверие 11) [63F5F5CF]Трек 12 точное извлечение (доверие 11) [FB187CAF]Трек 13 точное извлечение (доверие 11) [53A66689]Трек 14 точное извлечение (доверие 11) [36CDD6B7]Трек 15 точное извлечение (доверие 11) [CDC0235D]Трек 16 точное извлечение (доверие 11) [03D0DE46]Трек 17 точное извлечение (доверие 11) [5C9F0447]Трек 18 точное извлечение (доверие 11) [6F0CC4C1]Трек 19 точное извлечение (доверие 11) [633C58FC]Трек 20 точное извлечение (доверие 11) [B19D4BBF]Трек 21 точное извлечение (доверие 11) [FE00C8F1]Трек 22 точное извлечение (доверие 11) [78ED091E]Трек 23 точное извлечение (доверие 11) [9913DA1C]Трек 24 точное извлечение (доверие 11) [BCFBFE2F]Трек 25 точное извлечение (доверие 11) [96699EF8]Трек 26 точное извлечение (доверие 11) [12688DC3]Трек 27 точное извлечение (доверие 11) [145B1850]Трек 28 точное извлечение (доверие 11) [6703FB6A]Трек 29 точное извлечение (доверие 10) [DEEEC55E]Трек 30 точное извлечение (доверие 10) [A398A839]
Все треки извлечены точно
Конец отчёта

_________________
Показать сообщения:    

Текущее время: Сегодня 09:46

Часовой пояс: GMT



Вы не можете начинать темы
Вы не можете отвечать на сообщения
Вы не можете редактировать свои сообщения
Вы не можете удалять свои сообщения
Вы не можете голосовать в опросах
Вы не можете прикреплять файлы к сообщениям
Вы не можете скачивать файлы