Важное объявление!
У Нас Все раздачи мультитрекерные, при нуле пиров в релизах, можете смело вставать на закачку!
 
Автор Сообщение

HUNTER

Стаж:
4 года 4 месяца
Сообщений:
56829

Репутация: 101

[+] [-]
Вне форума [Профиль] [ЛС]

Clubland X-Treme Hardcore - CD CollectionЖанр: UK Hardcore
Страна-производитель диска: Великобритания
Год издания: 2005 - 2013
Издатель (лейбл): Universal Music TV
Аудиокодек: FLAC (*.flac)
Тип рипа: image+.cue
Битрейт аудио: lossless
Источник (релизер): Диски из личной коллекции
Наличие сканов в содержимом раздачи: да 600 dpi (*.jpg)

VA - Clubland X-Treme Hardcore - 2005, [3xCD], (Universal Music TV - [982 969-6]) /3:43:35/

Треклист:
CD1: Mixed by Darren Styles (1:17:41)
01. Darren Styles - Getting Better
02. Dougal & Gammer - Make Some Noise
03. System F - Cry (Re-Con Remix)
04. Styles & Breeze - You're My Angel (Scott Brown Remix)
05. United In Dance feat. Lisa Marie - Still The One (Re-Con Remix)
06. Darren Styles - Drop Zone
07. Bimbo Jones - Come & Fly With Me (Re-Con Remix)
08. Hixxy & Styles - The Theme
09. Styles & Breeze - Slide Away
10. Flip & Fill feat. Junior - Pacific Sun (Styles & Breeze Remix)
11. Hixxy & UFO - Welcome (05 mix)
12. Darren Styles feat Daniel Sherman - Sound Without A Name
13. Apollo - Dance (Re-Con Remix)
14. Sy & Unknown - Do We Have To Say Goodbye (Styles & Breeze Remix)
15. United In Dance feat. Jenna - Shining Down (Styles & Breeze Remix)
16. Dark Monks - Insane (Re-Con Remix)
17. Impact & Resist - Sunrise (Styles & Breeze Remix)

CD2: Mixed by Breeze (1:16:24)

01. Dougal & Gammer - X-Treme (Exclusive Clubland Remix)
02. Styles & Breeze feat. Karen Danzig - Heartbeatz (Re-Con Remix)
03. Styles & Breeze - Thug Boy
04. Neo Cortex - Elements (Styles & Breeze Remix)
05. Love Decade - So Real (Styles & Breeze Remix)
06. Scott Brown - Neck Breaker (Dougal & Gammer Remix)
07. Tina Cousins - Hymn (Gammer & G-Spencer Remix)
08. Gammer & G-Spencer - Ls Drive
09. Re-Con - Right Here - Right Now
10. Styles & Breeze - The Beat Kicks (Gammer Remix)
11. Darren Styles - Cuttin' Deep (VIP)
12. Breeze - Let's Fly (Deejaybee & Sketchy Remix)
13. Jess & Spenno - Find Your Way (Styles & Breeze Remix)
14. The Disco Brothers feat. Andrea Britton - Time Still Drifts Away (Styles & Breeze Remix)
15. Scott Brown & Cat Knight - All About You (Styles & Breeze Remix)
16. Lisa Abbott - Blow Me Away (Styles & Breeze Remix)
17. Eyeopener - 6 Days (Styles & Breeze Remix)
18. Scott Brown & DMO - Fade Away

CD3: Mixed By Hixxy (1:08:09)

01. Hixxy - Music Is My First Love (Intro)
02. N-Trance - Set You Free (Hixxy Remix)
03. Special D - Come With Me (Hixxy Remix)
04. Visa - Fly Away (Hixxy Remix)
05. Yum Yi feat. Becki Judge - Tantric (Alternative Mix)
06. Hixxy & Whizz Kid - End Of Time (Hixxy Intro Mix)
07. Brooklyn Bounce - Bass, Beats & Melody (Hixxy Remix)
08. Ultrabeat - Better Than Life (Hixxy Remix)
09. Hixxy - Night Life (Dougal & Gammer Remix)
10. Praga Khan - Injected With A Poison (Hixxy Remix)
11. Yum Yi feat. Becki Judge - Watching Waiting
12. Hixxy - Rok The Dance Floor (Dub Mix)
13. N-Trance - Forever (Hixxy Remix)
14. Hixxy - Become One
15. Ultrabeat - Pretty Green Eyes (Hixxy Remix)
16. Styles & Breeze - You're Shining (Hixxy Remix)

-

Лог создания рипа CD1

Exact Audio Copy V0.99 prebeta 4 from 23. January 2008
Отчёт EAC об извлечении, выполненном 7. апреля 2013, 13:07
Various / Clubland X-treme Hardcore (CD1) - Mixed By Darren Styles
Дисковод: Optiarc DVD RW AD-7261S Adapter: 1 ID: 1
Режим чтения : ДостоверностьИспользование точного потока : ДаОтключение кэша аудио : ДаИспользование указателей C2 : Нет
Коррекция смещения при чтении : 48Способность читать области Lead-in и Lead-out : НетЗаполнение пропущенных сэмплов тишиной : ДаУдаление блоков с тишиной в начале и конце : НетПри вычислениях CRC использовались нулевые сэмплы : ДаИнтерфейс : Встроенный Win32-интерфейс для Win NT/2000
Выходной формат : Внутренние WAV-операцииФормат сэмплов : 44.100 Гц; 16 бит; стерео
TOC извлечённого CD
Трек | Старт | Длительность | Начальный сектор | Конечный сектор --------------------------------------------------------------------- 1 | 0:00.00 | 5:03.20 | 0 | 22744 2 | 5:03.20 | 4:28.09 | 22745 | 42853 3 | 9:31.29 | 5:36.68 | 42854 | 68121 4 | 15:08.22 | 4:51.74 | 68122 | 90020 5 | 20:00.21 | 3:20.54 | 90021 | 105074 6 | 23:21.00 | 3:58.46 | 105075 | 122970 7 | 27:19.46 | 4:22.36 | 122971 | 142656 8 | 31:42.07 | 5:48.05 | 142657 | 168761 9 | 37:30.12 | 4:57.38 | 168762 | 191074 10 | 42:27.50 | 4:51.70 | 191075 | 212969 11 | 47:19.45 | 3:24.68 | 212970 | 228337 12 | 50:44.38 | 5:59.22 | 228338 | 255284 13 | 56:43.60 | 4:35.05 | 255285 | 275914 14 | 61:18.65 | 4:29.36 | 275915 | 296125 15 | 65:48.26 | 4:51.68 | 296126 | 318018 16 | 70:40.19 | 2:59.47 | 318019 | 331490 17 | 73:39.66 | 4:01.12 | 331491 | 349577
Характеристики диапазона извлечения и сообщения об ошибках
Выбранный диапазон
Имя файла C:\Users\Meijin\Desktop\Новая папка (4)\Various - Clubland X-treme Hardcore (CD1) - Mixed By Darren Styles.wav
Пиковый уровень 100.0 % Качество диапазона 100.0 % CRC теста A6482223 CRC копии A6482223 Копирование... OK
Ошибок не произошло
AccurateRip: сводка
Трек 1 точное извлечение (доверие 4) [F866B063]Трек 2 точное извлечение (доверие 4) [94FFA59C]Трек 3 точное извлечение (доверие 4) [E12F7C29]Трек 4 точное извлечение (доверие 4) [96A16021]Трек 5 точное извлечение (доверие 4) [2B4FBC1F]Трек 6 точное извлечение (доверие 4) [2BB0145D]Трек 7 точное извлечение (доверие 4) [D8A391DF]Трек 8 точное извлечение (доверие 4) [20EEEBEC]Трек 9 точное извлечение (доверие 4) [4D78FF2E]Трек 10 точное извлечение (доверие 4) [C6F26AB0]Трек 11 точное извлечение (доверие 4) [DB3DBEE8]Трек 12 точное извлечение (доверие 4) [906B1FF1]Трек 13 точное извлечение (доверие 4) [7870A668]Трек 14 точное извлечение (доверие 4) [B8E9BB16]Трек 15 точное извлечение (доверие 4) [4D164EA1]Трек 16 точное извлечение (доверие 4) [D21A68F9]Трек 17 точное извлечение (доверие 4) [E86EF5CA]
Все треки извлечены точно
Конец отчёта

Лог создания рипа CD2

Exact Audio Copy V0.99 prebeta 4 from 23. January 2008
Отчёт EAC об извлечении, выполненном 7. апреля 2013, 13:44
Various / Clubland X-treme Hardcore (CD2) - Mixed By Breeze
Дисковод: Optiarc DVD RW AD-7261S Adapter: 1 ID: 1
Режим чтения : ДостоверностьИспользование точного потока : ДаОтключение кэша аудио : ДаИспользование указателей C2 : Нет
Коррекция смещения при чтении : 48Способность читать области Lead-in и Lead-out : НетЗаполнение пропущенных сэмплов тишиной : ДаУдаление блоков с тишиной в начале и конце : НетПри вычислениях CRC использовались нулевые сэмплы : ДаИнтерфейс : Встроенный Win32-интерфейс для Win NT/2000
Выходной формат : Внутренние WAV-операцииФормат сэмплов : 44.100 Гц; 16 бит; стерео
TOC извлечённого CD
Трек | Старт | Длительность | Начальный сектор | Конечный сектор --------------------------------------------------------------------- 1 | 0:00.00 | 4:53.41 | 0 | 22015 2 | 4:53.41 | 4:42.59 | 22016 | 43224 3 | 9:36.25 | 4:19.56 | 43225 | 62705 4 | 13:56.06 | 4:31.03 | 62706 | 83033 5 | 18:27.09 | 5:07.55 | 83034 | 106113 6 | 23:34.64 | 5:14.19 | 106114 | 129682 7 | 28:49.08 | 3:57.51 | 129683 | 147508 8 | 32:46.59 | 3:17.46 | 147509 | 162329 9 | 36:04.30 | 4:31.04 | 162330 | 182658 10 | 40:35.34 | 4:42.26 | 182659 | 203834 11 | 45:17.60 | 2:49.30 | 203835 | 216539 12 | 48:07.15 | 2:29.46 | 216540 | 227760 13 | 50:36.61 | 5:27.33 | 227761 | 252318 14 | 56:04.19 | 4:31.00 | 252319 | 272643 15 | 60:35.19 | 4:53.42 | 272644 | 294660 16 | 65:28.61 | 4:08.30 | 294661 | 313290 17 | 69:37.16 | 4:30.68 | 313291 | 333608 18 | 74:08.09 | 3:36.66 | 333609 | 349874
Характеристики диапазона извлечения и сообщения об ошибках
Выбранный диапазон
Имя файла C:\Users\Meijin\Desktop\Новая папка (4)\Various - Clubland X-treme Hardcore (CD2) - Mixed By Breeze.wav
Пиковый уровень 100.0 % Качество диапазона 100.0 % CRC теста 184D164E CRC копии 184D164E Копирование... OK
Ошибок не произошло
AccurateRip: сводка
Трек 1 точное извлечение (доверие 3) [C4AE3275]Трек 2 точное извлечение (доверие 3) [D7DFF72B]Трек 3 точное извлечение (доверие 3) [8BBC9627]Трек 4 точное извлечение (доверие 3) [6F2E5200]Трек 5 точное извлечение (доверие 3) [9B32BE9D]Трек 6 точное извлечение (доверие 3) [B548F299]Трек 7 точное извлечение (доверие 3) [406C1040]Трек 8 точное извлечение (доверие 3) [35FEAA05]Трек 9 точное извлечение (доверие 3) [CE1F9979]Трек 10 точное извлечение (доверие 3) [D716FC5C]Трек 11 точное извлечение (доверие 3) [2DF95810]Трек 12 точное извлечение (доверие 3) [F3DE8887]Трек 13 точное извлечение (доверие 3) [7C4BCC9B]Трек 14 точное извлечение (доверие 3) [17EC7F25]Трек 15 точное извлечение (доверие 3) [49729BEC]Трек 16 точное извлечение (доверие 3) [A41F7512]Трек 17 точное извлечение (доверие 3) [7FF6E4BE]Трек 18 точное извлечение (доверие 3) [C8766A46]
Все треки извлечены точно
Конец отчёта

Лог создания рипа CD3

Exact Audio Copy V0.99 prebeta 4 from 23. January 2008
Отчёт EAC об извлечении, выполненном 4. мая 2013, 20:55
Various / Clubland X-treme Hardcore (CD3) - Mixed By Hixxy
Дисковод: Optiarc DVD RW AD-7261S Adapter: 1 ID: 1
Режим чтения : ДостоверностьИспользование точного потока : ДаОтключение кэша аудио : ДаИспользование указателей C2 : Нет
Коррекция смещения при чтении : 48Способность читать области Lead-in и Lead-out : НетЗаполнение пропущенных сэмплов тишиной : ДаУдаление блоков с тишиной в начале и конце : НетПри вычислениях CRC использовались нулевые сэмплы : ДаИнтерфейс : Встроенный Win32-интерфейс для Win NT/2000
Выходной формат : Внутренние WAV-операцииФормат сэмплов : 44.100 Гц; 16 бит; стерео
TOC извлечённого CD
Трек | Старт | Длительность | Начальный сектор | Конечный сектор --------------------------------------------------------------------- 1 | 0:00.00 | 2:08.26 | 0 | 9625 2 | 2:08.26 | 3:44.39 | 9626 | 26464 3 | 5:52.65 | 3:40.64 | 26465 | 43028 4 | 9:33.54 | 3:58.44 | 43029 | 60922 5 | 13:32.23 | 3:31.54 | 60923 | 76801 6 | 17:04.02 | 3:39.53 | 76802 | 93279 7 | 20:43.55 | 3:53.37 | 93280 | 110791 8 | 24:37.17 | 4:32.11 | 110792 | 131202 9 | 29:09.28 | 4:34.60 | 131203 | 151812 10 | 33:44.13 | 4:14.28 | 151813 | 170890 11 | 37:58.41 | 4:42.25 | 170891 | 192065 12 | 42:40.66 | 4:42.30 | 192066 | 213245 13 | 47:23.21 | 4:28.18 | 213246 | 233363 14 | 51:51.39 | 5:58.71 | 233364 | 260284 15 | 57:50.35 | 4:09.67 | 260285 | 279026 16 | 62:00.27 | 6:08.28 | 279027 | 306654
Характеристики диапазона извлечения и сообщения об ошибках
Выбранный диапазон
Имя файла C:\Users\Meijin\Desktop\Новая папка (4)\Various - Clubland X-treme Hardcore (CD3) - Mixed By Hixxy.wav
Пиковый уровень 100.0 % Качество диапазона 100.0 % CRC теста 86B64AA9 CRC копии 86B64AA9 Копирование... OK
Ошибок не произошло
AccurateRip: сводка
Трек 1 точное извлечение (доверие 3) [8603AE8E]Трек 2 точное извлечение (доверие 3) [578BD3FA]Трек 3 точное извлечение (доверие 3) [F021A2A2]Трек 4 точное извлечение (доверие 3) [99188925]Трек 5 точное извлечение (доверие 3) [E682D6AB]Трек 6 точное извлечение (доверие 3) [EA9FC766]Трек 7 точное извлечение (доверие 3) [D3E5DF63]Трек 8 точное извлечение (доверие 3) [D7CDFDEE]Трек 9 точное извлечение (доверие 3) [F7A4D976]Трек 10 точное извлечение (доверие 3) [647D1886]Трек 11 точное извлечение (доверие 3) [B2787927]Трек 12 точное извлечение (доверие 3) [23533870]Трек 13 точное извлечение (доверие 3) [DFFF1B5A]Трек 14 точное извлечение (доверие 3) [1330EF24]Трек 15 точное извлечение (доверие 3) [7E1C77E8]Трек 16 точное извлечение (доверие 3) [15549715]
Все треки извлечены точно
Конец отчёта

VA - Clubland X-Treme Hardcore 2 - 2006, [3xCD], (Universal Music TV - [983 7866]) /3:31:58/

Треклист:
CD1: Mixed By Darren Styles (1:16:52)
01. Darren Styles – Jealous
02. Ultrabeat vs. Scott Brown – Elysium (S&B Mix)
03. Ian Van Dahl – Inspiration (Sy & Unknown Mix)
04. Darren Styles Feat. Junior – I Need You
05. United In Dance – Rockin With The Best
06. Clear Vu – Never Too Late
07. Darren Styles – Save Me
08. Re-Con – Pull Over (Re-Edit)
09. Sy & Unknown Feat. Lou Lou – U R My Phantasy (DS Mix)
10. Styles & Breeze Feat. Whizzkid – Nightmare
11. Dougal & Gammer Feat. Lisa Marie – How Did I Get Here
12. Route-1 Feat. Jenny Frost – Crash Landing (DS Mix)
13. Hixxy & Styles Feat. Lou Lou – Happiness
14. Trinity – Like The Sun (Sy & Unknown Mix)
15. Darren Styles – Skydivin' (DS Remix)
16. Styles & Re-Con – Where Do We Go
17. Flip & Fill Feat. Kelly Llorenna – True Love Never Dies (DS Mix)

CD2: Mixed By Breeze (1:17:58)

01. Styles & Breeze – You're My Angel (Midnight Mix)
02. Scooter vs. Breeze – Nessaja (Hardcore Mix)
03. Styles & Breeze Feat. Karen Danzig – I Will Be (Stevie B Remix)
04. Styles & Breeze Feat. MC Storm – Dark Like Vader (Clubland Edit)
05. Sy & Unknown Feat. Lou Lou – Believe In Me (Breeze Remix)
06. Styles & Breeze – You're Shining (Squad-E Remix)
07. Audioscape – Walk Away (S&B Mix)
08. Re-Con & Squad-E – 1000 Kisses
09. Styles & Breeze – Love Garden
10. UFO & MC Marley – Connections 06
11. Darren Styles – Getting Better (Squad-E Remix)
12. Breeze – Hardcore DJ
13. Uplift & Euphony Feat. Donna M – Inside Your Mind
14. Statik – Got A Feeling (Breeze Remix)
15. Heaven 7 – This Life (S&B Mix)
16. Breeze Feat. MC Storm – Jump, Jump, A Little Higher (Gammer Remix)
17. Dougal & Gammer – Know The Score (Clubland Edit)
18. Breeze & UFO – Take Your Time (UFO Remix)

Bonus CD3: Featuring Hixxy Tracks And Remixes (0:57:09)

01. Hixxy – More & More
02. Porn Kings vs. Hixxy – Kickin' In The Beat (Hixxy Remix)
03. Hixxy & Styles – Elevator
04. Whizzkid, Flyin' & Sparky – Free At Last (Hixxy Remix)
05. Hixxy & Re-Con – Paradise
06. Sy & Unknown – If That's Alright With You (Hixxy Remix)
07. Hixxy – I Have To Dream
08. Tatu – All About Us (Hixxy Remix)
09. Hixxy – R U Ready? (Xtreme Mix)
10. Hixxy & Dario G – All My Life (Dream To Me)
11. MC Storm – Just Accept It (Hixxy Remix)
12. Hixxy & Re-Con – I Can Wait (Squad-E Remix)
13. Hixxy – Final Destination

-

Лог создания рипа CD1

Exact Audio Copy V0.99 prebeta 4 from 23. January 2008
Отчёт EAC об извлечении, выполненном 20. июня 2013, 0:54
Various / Clubland X-treme Hardcore 2 (CD1) - Mixed By Darren Styles
Дисковод: Optiarc DVD RW AD-7261S Adapter: 1 ID: 1
Режим чтения : ДостоверностьИспользование точного потока : ДаОтключение кэша аудио : ДаИспользование указателей C2 : Нет
Коррекция смещения при чтении : 48Способность читать области Lead-in и Lead-out : НетЗаполнение пропущенных сэмплов тишиной : ДаУдаление блоков с тишиной в начале и конце : НетПри вычислениях CRC использовались нулевые сэмплы : ДаИнтерфейс : Встроенный Win32-интерфейс для Win NT/2000
Выходной формат : Внутренние WAV-операцииФормат сэмплов : 44.100 Гц; 16 бит; стерео
TOC извлечённого CD
Трек | Старт | Длительность | Начальный сектор | Конечный сектор --------------------------------------------------------------------- 1 | 0:00.00 | 3:19.55 | 0 | 14979 2 | 3:19.55 | 4:26.26 | 14980 | 34955 3 | 7:46.06 | 4:29.13 | 34956 | 55143 4 | 12:15.19 | 4:37.37 | 55144 | 75955 5 | 16:52.56 | 3:08.07 | 75956 | 90062 6 | 20:00.63 | 4:38.08 | 90063 | 110920 7 | 24:38.71 | 5:32.62 | 110921 | 135882 8 | 30:11.58 | 4:14.33 | 135883 | 154965 9 | 34:26.16 | 5:10.48 | 154966 | 178263 10 | 39:36.64 | 3:22.18 | 178264 | 193431 11 | 42:59.07 | 4:43.02 | 193432 | 214658 12 | 47:42.09 | 4:04.14 | 214659 | 232972 13 | 51:46.23 | 4:46.41 | 232973 | 254463 14 | 56:32.64 | 4:06.21 | 254464 | 272934 15 | 60:39.10 | 5:20.47 | 272935 | 296981 16 | 65:59.57 | 5:33.00 | 296982 | 321956 17 | 71:32.57 | 5:18.27 | 321957 | 345833
Характеристики диапазона извлечения и сообщения об ошибках
Выбранный диапазон
Имя файла C:\Users\Meijin\Desktop\Новая папка (4)\Various - Clubland X-treme Hardcore 2 (CD1) - Mixed By Darren Styles.wav
Пиковый уровень 97.9 % Качество диапазона 100.0 % CRC теста 450A1D9C CRC копии 450A1D9C Копирование... OK
Ошибок не произошло
AccurateRip: сводка
Трек 1 точное извлечение (доверие 9) [75C244E3]Трек 2 точное извлечение (доверие 9) [52D7C479]Трек 3 точное извлечение (доверие 9) [713BAE07]Трек 4 точное извлечение (доверие 9) [AE3C4390]Трек 5 точное извлечение (доверие 9) [CACCF7DA]Трек 6 точное извлечение (доверие 9) [C6B6BD02]Трек 7 точное извлечение (доверие 9) [6E2BDEA5]Трек 8 точное извлечение (доверие 9) [C90C6D03]Трек 9 точное извлечение (доверие 9) [F8C1745F]Трек 10 точное извлечение (доверие 9) [443C70F5]Трек 11 точное извлечение (доверие 9) [42EB2F88]Трек 12 точное извлечение (доверие 9) [0E322ACD]Трек 13 точное извлечение (доверие 9) [C6862ECA]Трек 14 точное извлечение (доверие 9) [1F0D13B0]Трек 15 точное извлечение (доверие 8) [B7DF487B]Трек 16 точное извлечение (доверие 8) [7E5E9B12]Трек 17 точное извлечение (доверие 8) [221E1DE2]
Все треки извлечены точно
Конец отчёта

Лог создания рипа CD2

Exact Audio Copy V0.99 prebeta 4 from 23. January 2008
Отчёт EAC об извлечении, выполненном 20. июня 2013, 2:07
Various / Clubland X-treme Hardcore 2 (CD2) - Mixed By Breeze
Дисковод: Optiarc DVD RW AD-7261S Adapter: 1 ID: 1
Режим чтения : ДостоверностьИспользование точного потока : ДаОтключение кэша аудио : ДаИспользование указателей C2 : Нет
Коррекция смещения при чтении : 48Способность читать области Lead-in и Lead-out : НетЗаполнение пропущенных сэмплов тишиной : ДаУдаление блоков с тишиной в начале и конце : НетПри вычислениях CRC использовались нулевые сэмплы : ДаИнтерфейс : Встроенный Win32-интерфейс для Win NT/2000
Выходной формат : Внутренние WAV-операцииФормат сэмплов : 44.100 Гц; 16 бит; стерео
TOC извлечённого CD
Трек | Старт | Длительность | Начальный сектор | Конечный сектор --------------------------------------------------------------------- 1 | 0:00.00 | 4:37.59 | 0 | 20833 2 | 4:37.59 | 4:02.66 | 20834 | 39049 3 | 8:40.50 | 3:30.64 | 39050 | 54863 4 | 12:11.39 | 2:26.48 | 54864 | 65861 5 | 14:38.12 | 3:09.41 | 65862 | 80077 6 | 17:47.53 | 4:34.02 | 80078 | 100629 7 | 22:21.55 | 4:05.56 | 100630 | 119060 8 | 26:27.36 | 5:26.55 | 119061 | 143565 9 | 31:54.16 | 5:18.24 | 143566 | 167439 10 | 37:12.40 | 5:16.13 | 167440 | 191152 11 | 42:28.53 | 4:45.51 | 191153 | 212578 12 | 47:14.29 | 3:42.09 | 212579 | 229237 13 | 50:56.38 | 4:18.16 | 229238 | 248603 14 | 55:14.54 | 3:49.07 | 248604 | 265785 15 | 59:03.61 | 5:02.73 | 265786 | 288508 16 | 64:06.59 | 4:39.19 | 288509 | 309452 17 | 68:46.03 | 4:15.39 | 309453 | 328616 18 | 73:01.42 | 4:56.33 | 328617 | 350849
Характеристики диапазона извлечения и сообщения об ошибках
Выбранный диапазон
Имя файла C:\Users\Meijin\Desktop\Новая папка (4)\Various - Clubland X-treme Hardcore 2 (CD2) - Mixed By Breeze.wav
Пиковый уровень 95.4 % Качество диапазона 100.0 % CRC теста 70F08F65 CRC копии 70F08F65 Копирование... OK
Ошибок не произошло
AccurateRip: сводка
Трек 1 точное извлечение (доверие 9) [DB5B2750]Трек 2 точное извлечение (доверие 9) [78535A72]Трек 3 точное извлечение (доверие 9) [8CFF21E6]Трек 4 точное извлечение (доверие 9) [E26BC1EE]Трек 5 точное извлечение (доверие 9) [B32A1DF5]Трек 6 точное извлечение (доверие 9) [18B2FD3D]Трек 7 точное извлечение (доверие 9) [E9FB576C]Трек 8 точное извлечение (доверие 9) [4CDA5479]Трек 9 точное извлечение (доверие 9) [D14427F8]Трек 10 точное извлечение (доверие 9) [62FDA103]Трек 11 точное извлечение (доверие 9) [DCD59A81]Трек 12 точное извлечение (доверие 9) [54506D4F]Трек 13 точное извлечение (доверие 9) [8D69CEDF]Трек 14 точное извлечение (доверие 9) [CB30EEBB]Трек 15 точное извлечение (доверие 9) [31CE2893]Трек 16 точное извлечение (доверие 9) [BBFA19B4]Трек 17 точное извлечение (доверие 9) [BC7F2EF5]Трек 18 точное извлечение (доверие 9) [43E8CEF2]
Все треки извлечены точно
Конец отчёта

Лог создания рипа CD3

Exact Audio Copy V0.99 prebeta 4 from 23. January 2008
Отчёт EAC об извлечении, выполненном 21. июня 2013, 9:26
Various / Clubland X-treme Hardcore 2 (CD3) - Bonus Hixxy Tracks and Remixes
Дисковод: Optiarc DVD RW AD-7261S Adapter: 1 ID: 1
Режим чтения : ДостоверностьИспользование точного потока : ДаОтключение кэша аудио : ДаИспользование указателей C2 : Нет
Коррекция смещения при чтении : 48Способность читать области Lead-in и Lead-out : НетЗаполнение пропущенных сэмплов тишиной : ДаУдаление блоков с тишиной в начале и конце : НетПри вычислениях CRC использовались нулевые сэмплы : ДаИнтерфейс : Встроенный Win32-интерфейс для Win NT/2000
Выходной формат : Внутренние WAV-операцииФормат сэмплов : 44.100 Гц; 16 бит; стерео
TOC извлечённого CD
Трек | Старт | Длительность | Начальный сектор | Конечный сектор --------------------------------------------------------------------- 1 | 0:00.00 | 5:09.58 | 0 | 23232 2 | 5:09.58 | 3:51.52 | 23233 | 40609 3 | 9:01.35 | 3:18.53 | 40610 | 55512 4 | 12:20.13 | 4:15.12 | 55513 | 74649 5 | 16:35.25 | 3:51.51 | 74650 | 92025 6 | 20:27.01 | 4:26.17 | 92026 | 111992 7 | 24:53.18 | 4:27.43 | 111993 | 132060 8 | 29:20.61 | 4:53.63 | 132061 | 154098 9 | 34:14.49 | 4:23.32 | 154099 | 173855 10 | 38:38.06 | 4:57.71 | 173856 | 196201 11 | 43:36.02 | 4:00.48 | 196202 | 214249 12 | 47:36.50 | 4:03.37 | 214250 | 232511 13 | 51:40.12 | 5:28.62 | 232512 | 257173
Характеристики диапазона извлечения и сообщения об ошибках
Выбранный диапазон
Имя файла C:\Users\Meijin\Desktop\Новая папка (4)\Various - Clubland X-treme Hardcore 2 (CD3) - Bonus Hixxy Tracks and Remixes.wav
Пиковый уровень 100.0 % Качество диапазона 100.0 % CRC теста D0A317E5 CRC копии D0A317E5 Копирование... OK
Ошибок не произошло
AccurateRip: сводка
Трек 1 точное извлечение (доверие 7) [615624B7]Трек 2 точное извлечение (доверие 7) [1A12AE03]Трек 3 точное извлечение (доверие 7) [DD4411E7]Трек 4 точное извлечение (доверие 6) [2C14B70A]Трек 5 точное извлечение (доверие 7) [B959DA30]Трек 6 точное извлечение (доверие 7) [F76E434B]Трек 7 точное извлечение (доверие 7) [D2952307]Трек 8 точное извлечение (доверие 7) [CA5915BD]Трек 9 точное извлечение (доверие 7) [966C92E3]Трек 10 точное извлечение (доверие 7) [998ED057]Трек 11 точное извлечение (доверие 7) [3CCC87C2]Трек 12 точное извлечение (доверие 7) [9CAA9EDE]Трек 13 точное извлечение (доверие 7) [94DDECC8]
Все треки извлечены точно
Конец отчёта

VA - Clubland X-Treme Hardcore 3 - 2007, [3xCD], (Universal Music TV - [172 019-7])/3:29:01/

Треклист:
CD1: Mixed By Darren Styles (01:10:13)
01. Liz Kay - Castles In The Sky (DS Remix)
02. Darren Styles feat. Wayne G - Lost The Plot
03. Wave - Piece Of Heaven
04. United In Dance - Here Come The Drums
05. Cascada - Everytime We Touch (Styles & Breeze Remix)
06. Darren Styles & Francis Hill - I Say I Love You
07. Dougal & Gammer - Nobody Likes The Records
08. Darren Styles - Skydivin' (Vocal Mix)
09. Deja Vu - Face Down Ass Up (DS Remix)
10. Hyperlogic - Only You (Re-Con Remix)
11. Darren Styles - Save Me (Re-Con Remix)
12. Sy & Unknown feat. Lou Lou - Be With You
13. Styles & Re-Con - Sure Feels Good
14. Styles & Breeze - Do You Want Me Honey
15. Vince Nysse & N J Hinton - Silver Water (DS Remix)
16. United In Dance - Boom Daka
17. Metro - Make This Happen

CD2: Mixed By Breeze (01:10:58)

01. MC Storm Flyin' & Sparky - All About
02. D-Code feat. Emma - My Direction (Xtreme Edit)
03. Breeze - Hardcore DJ (Re-Con Remix)
04. Liz Kay - When Love Becomes A Lie (Breeze Remix)
05. Breeze & Re-Con - Only If
06. Cascada - Truly Madly Deeply (Styles & Breeze Remix)
07. Breeze & Euphony - Never Be Alone
08. Bodyrox - Yeah Yeah (Dougal & Gammer 'The Beats The Bass' Remix)
09. Ramos Supreme & Sunset Regime - Gotta Believe (Re-Con Remix)
10. Breeze v Lost Witness - Rise Again
11. SHM & Scottie B - Crash
12. Breeze & UFO - Dirty
13. Sy & Unknown feat. Lou Lou - Touch The Sky
14. Breeze & Re-Con - Love You For A Lifetime
15. Sublime - Walking In The Rain (Styles & Breeze Remix)
16. Styles & Breeze - Come On
17. Re-Con & Squad-E - Good To Me
18. Infextious - Let Me Fly (Jamie Ritmen Remix)

CD3: Bonus Hixxy CD (01:07:49)

01. Squad-E & Chris Henry - Untouchable (Hixxy & Squad-E Remix)
02. Hixxy - Take Me With You
03. Hixxy, Sy & Unknown - Freaks
04. Voodoo & Serano - Overload (Hixxy & Re-Con Remix)
05. Hixxy & Squad-E - Beat Drop
06. Hixxy - More & More (Sy & Unknown Remix)
07. Hixxy & Re-Con - Come Alive
08. Hixxy & Dougal & Gammer - Hot Looking Babes
09. Anti-Social - Forever Young (Hixxy Remix)
10. Hixxy, Sy & Unknown - First Time Meet Up
11. Hixxy & Re-Con - Power Of Love
12. Hixxy & Re-Con - Get Hard
13. Hixxy & Euphony feat. Donna Mari - Night Life (Hixxy Remix)
14. Hixxy & Storm meet Dougal & Gammer - I'm Hardcore, This Is What I Do
15. Hixxy - Sacrifice

-

Лог создания рипа CD1

Exact Audio Copy V0.99 prebeta 4 from 23. January 2008Отчёт EAC об извлечении, выполненном 9. февраля 2013, 22:09Various / Clubland X-Treme Hardcore 3 (CD1)Дисковод: Optiarc DVD RW AD-7261S Adapter: 1 ID: 1Режим чтения : ДостоверностьИспользование точного потока : ДаОтключение кэша аудио : ДаИспользование указателей C2 : НетКоррекция смещения при чтении : 48Способность читать области Lead-in и Lead-out : НетЗаполнение пропущенных сэмплов тишиной : ДаУдаление блоков с тишиной в начале и конце : НетПри вычислениях CRC использовались нулевые сэмплы : ДаИнтерфейс : Встроенный Win32-интерфейс для Win NT/2000Выходной формат : Внутренние WAV-операцииФормат сэмплов : 44.100 Гц; 16 бит; стереоTOC извлечённого CD Трек | Старт | Длительность | Начальный сектор | Конечный сектор --------------------------------------------------------------------- 1 | 0:00.00 | 5:17.66 | 0 | 23840 2 | 5:17.66 | 3:09.59 | 23841 | 38074 3 | 8:27.50 | 3:54.31 | 38075 | 55655 4 | 12:22.06 | 3:15.24 | 55656 | 70304 5 | 15:37.30 | 3:20.72 | 70305 | 85376 6 | 18:58.27 | 4:29.22 | 85377 | 105573 7 | 23:27.49 | 4:06.22 | 105574 | 124045 8 | 27:33.71 | 4:28.44 | 124046 | 144189 9 | 32:02.40 | 3:43.22 | 144190 | 160936 10 | 35:45.62 | 4:27.71 | 160937 | 181032 11 | 40:13.58 | 3:41.66 | 181033 | 197673 12 | 43:55.49 | 3:50.19 | 197674 | 214942 13 | 47:45.68 | 5:12.45 | 214943 | 238387 14 | 52:58.38 | 3:46.06 | 238388 | 255343 15 | 56:44.44 | 4:19.42 | 255344 | 274810 16 | 61:04.11 | 3:43.16 | 274811 | 291551 17 | 64:47.27 | 5:26.09 | 291552 | 316010Характеристики диапазона извлечения и сообщения об ошибкахВыбранный диапазон Имя файла C:\Users\Meijin\Desktop\Новая папка (4)\Various - Clubland X-Treme Hardcore 3 (CD1).wav Пиковый уровень 100.0 % Качество диапазона 100.0 % CRC теста 580208FB CRC копии 580208FB Копирование... OKОшибок не произошлоAccurateRip: сводкаТрек 1 точное извлечение (доверие 4) [48CA75D7]Трек 2 точное извлечение (доверие 4) [2ECF6B0D]Трек 3 точное извлечение (доверие 4) [20AC0DB3]Трек 4 точное извлечение (доверие 4) [22CE5332]Трек 5 точное извлечение (доверие 4) [13779E8C]Трек 6 точное извлечение (доверие 4) [261DA134]Трек 7 точное извлечение (доверие 4) [51394E08]Трек 8 точное извлечение (доверие 4) [15B26754]Трек 9 точное извлечение (доверие 4) [CEA75679]Трек 10 точное извлечение (доверие 4) [BD3E844D]Трек 11 точное извлечение (доверие 4) [2F1F9D89]Трек 12 точное извлечение (доверие 4) [7E9E672E]Трек 13 точное извлечение (доверие 4) [BA239525]Трек 14 точное извлечение (доверие 4) [4FD3A402]Трек 15 точное извлечение (доверие 4) [8581D8E1]Трек 16 точное извлечение (доверие 4) [E2327D3A]Трек 17 точное извлечение (доверие 4) [5C12C89F]Все треки извлечены точноКонец отчёта

Лог создания рипа CD2

Exact Audio Copy V0.99 prebeta 4 from 23. January 2008Отчёт EAC об извлечении, выполненном 9. февраля 2013, 22:48Various / Clubland X-Treme Hardcore 3 (CD2)Дисковод: Optiarc DVD RW AD-7261S Adapter: 1 ID: 1Режим чтения : ДостоверностьИспользование точного потока : ДаОтключение кэша аудио : ДаИспользование указателей C2 : НетКоррекция смещения при чтении : 48Способность читать области Lead-in и Lead-out : НетЗаполнение пропущенных сэмплов тишиной : ДаУдаление блоков с тишиной в начале и конце : НетПри вычислениях CRC использовались нулевые сэмплы : ДаИнтерфейс : Встроенный Win32-интерфейс для Win NT/2000Выходной формат : Внутренние WAV-операцииФормат сэмплов : 44.100 Гц; 16 бит; стереоTOC извлечённого CD Трек | Старт | Длительность | Начальный сектор | Конечный сектор --------------------------------------------------------------------- 1 | 0:00.00 | 4:07.39 | 0 | 18563 2 | 4:07.39 | 4:30.51 | 18564 | 38864 3 | 8:38.15 | 3:20.71 | 38865 | 53935 4 | 11:59.11 | 3:43.22 | 53936 | 70682 5 | 15:42.33 | 3:19.41 | 70683 | 85648 6 | 19:01.74 | 2:26.39 | 85649 | 96637 7 | 21:28.38 | 4:39.05 | 96638 | 117567 8 | 26:07.43 | 2:47.41 | 117568 | 130133 9 | 28:55.09 | 4:39.01 | 130134 | 151059 10 | 33:34.10 | 4:39.13 | 151060 | 171997 11 | 38:13.23 | 4:50.21 | 171998 | 193768 12 | 43:03.44 | 3:12.42 | 193769 | 208210 13 | 46:16.11 | 4:49.08 | 208211 | 229893 14 | 51:05.19 | 3:22.04 | 229894 | 245047 15 | 54:27.23 | 3:20.72 | 245048 | 260119 16 | 57:48.20 | 3:55.66 | 260120 | 277810 17 | 61:44.11 | 4:39.08 | 277811 | 298743 18 | 66:23.19 | 4:34.57 | 298744 | 319350Характеристики диапазона извлечения и сообщения об ошибкахВыбранный диапазон Имя файла C:\Users\Meijin\Desktop\Новая папка (4)\Various - Clubland X-Treme Hardcore 3 (CD2).wav Пиковый уровень 100.0 % Качество диапазона 100.0 % CRC теста 74DF4FA9 CRC копии 74DF4FA9 Копирование... OKОшибок не произошлоAccurateRip: сводкаТрек 1 точное извлечение (доверие 5) [F7E182FD]Трек 2 точное извлечение (доверие 5) [EB90C4DB]Трек 3 точное извлечение (доверие 5) [9A491C9C]Трек 4 точное извлечение (доверие 5) [3EE354B6]Трек 5 точное извлечение (доверие 5) [5FCF0E33]Трек 6 точное извлечение (доверие 5) [4AC5939D]Трек 7 точное извлечение (доверие 5) [1A00AC32]Трек 8 точное извлечение (доверие 5) [74CB2AE4]Трек 9 точное извлечение (доверие 5) [66DB3899]Трек 10 точное извлечение (доверие 5) [A9D19092]Трек 11 точное извлечение (доверие 5) [9E65E0D8]Трек 12 точное извлечение (доверие 5) [A79EB586]Трек 13 точное извлечение (доверие 5) [4B95F867]Трек 14 точное извлечение (доверие 5) [D36827C6]Трек 15 точное извлечение (доверие 5) [8FB4CD69]Трек 16 точное извлечение (доверие 5) [3D084AE3]Трек 17 точное извлечение (доверие 5) [B6EC9458]Трек 18 точное извлечение (доверие 5) [46446794]Все треки извлечены точноКонец отчёта

Лог создания рипа CD3

Exact Audio Copy V0.99 prebeta 4 from 23. January 2008Отчёт EAC об извлечении, выполненном 9. февраля 2013, 23:30Various / Clubland X-Treme Hardcore 3 (CD3)Дисковод: Optiarc DVD RW AD-7261S Adapter: 1 ID: 1Режим чтения : ДостоверностьИспользование точного потока : ДаОтключение кэша аудио : ДаИспользование указателей C2 : НетКоррекция смещения при чтении : 48Способность читать области Lead-in и Lead-out : НетЗаполнение пропущенных сэмплов тишиной : ДаУдаление блоков с тишиной в начале и конце : НетПри вычислениях CRC использовались нулевые сэмплы : ДаИнтерфейс : Встроенный Win32-интерфейс для Win NT/2000Выходной формат : Внутренние WAV-операцииФормат сэмплов : 44.100 Гц; 16 бит; стереоTOC извлечённого CD Трек | Старт | Длительность | Начальный сектор | Конечный сектор --------------------------------------------------------------------- 1 | 0:00.00 | 4:27.53 | 0 | 20077 2 | 4:27.53 | 4:41.66 | 20078 | 41218 3 | 9:09.44 | 4:20.09 | 41219 | 60727 4 | 13:29.53 | 5:25.14 | 60728 | 85116 5 | 18:54.67 | 3:58.32 | 85117 | 102998 6 | 22:53.24 | 4:20.10 | 102999 | 122508 7 | 27:13.34 | 3:47.44 | 122509 | 139577 8 | 31:01.03 | 3:47.45 | 139578 | 156647 9 | 34:48.48 | 4:20.10 | 156648 | 176157 10 | 39:08.58 | 5:03.36 | 176158 | 198918 11 | 44:12.19 | 4:19.74 | 198919 | 218417 12 | 48:32.18 | 3:36.65 | 218418 | 234682 13 | 52:09.08 | 4:41.57 | 234683 | 255814 14 | 56:50.65 | 4:59.28 | 255815 | 278267 15 | 61:50.18 | 5:58.64 | 278268 | 305181Характеристики диапазона извлечения и сообщения об ошибкахВыбранный диапазон Имя файла C:\Users\Meijin\Desktop\Новая папка (4)\Various - Clubland X-Treme Hardcore 3 (CD3).wav Пиковый уровень 75.1 % Качество диапазона 99.9 % CRC теста 9214AC3D CRC копии 9214AC3D Копирование... OKОшибок не произошлоAccurateRip: сводкаТрек 1 точное извлечение (доверие 5) [0A8AE891]Трек 2 точное извлечение (доверие 5) [1FF9374D]Трек 3 точное извлечение (доверие 5) [652D5627]Трек 4 точное извлечение (доверие 5) [C42043C7]Трек 5 точное извлечение (доверие 5) [4FDB3B95]Трек 6 точное извлечение (доверие 5) [E4B9EC75]Трек 7 точное извлечение (доверие 5) [7AE32039]Трек 8 точное извлечение (доверие 5) [ADAD49C3]Трек 9 точное извлечение (доверие 5) [DCB6240A]Трек 10 точное извлечение (доверие 5) [E060342D]Трек 11 точное извлечение (доверие 5) [CB6483BE]Трек 12 точное извлечение (доверие 5) [B28C848D]Трек 13 точное извлечение (доверие 5) [61005DBE]Трек 14 точное извлечение (доверие 5) [516D828F]Трек 15 точное извлечение (доверие 5) [44307504]Все треки извлечены точноКонец отчёта

VA - Clubland X-Treme Hardcore 4 - 2007, [3xCD], (Universal Music TV - [175 580-9]) /3:46:05/

Треклист:
CD1: Mixed By Darren Styles (1:17:10)
01. Intro
02. Darren Syles & Francis Hill - Come Running
03. Dougal & Gammer - Don't Stop Go
04. Darren Styles Vs Hypasonic - Baby I'll Let You Know
05. Re-Con - Beating Of The Drum (Can You Feel It)
06. Nalin & And Kane Feat. Alex Prince - Cruising (Beach Ball 06)
07. Hypasonic Vs Jorg Schmidt - Doesn't Matter (Squad-E Mix)
08. Darren Styles & Whizzkid - Girlfriend
09. Gammer - Rippin'
10. Darren Styles Feat. Andrea Britton - Show Me The Sunshine
11. Sy & Unknown Feat. Lou Lou - Hands Of Time
12. Styles & Squad-E - Party People
13. D-Code Feat. Emma - Like I Feel (Squad-E Mix)
14. Ultrabeat Vs Darren Styles - Paradise & Dreams
15. Darren Styles - Jealous (Specialist Sound Mix)
16. Dougal & Gammer - Wii Go Crazy
17. Darren Styles Feat. Junior - I Need You (Sy & Unknown Mix)
18. Darren Styles & Francis Hill - Light Of My Life
19. Sy & Unknown Feat. Emily Reed - Love For Marie

CD2: Mixed By Breeze (1:17:19)

01. SHM - You And Me (Breeze Mix)
02. Paradise - See The Light (Styles & Breeze Mix)
03. Micky Modelle feat. Jessy - Dancing In The Dark (Breeze & UFO Mix)
04. Breeze vs. Lost Witness - Rise Again (Sy & Unknown Mix)
05. Manian feat. Aila - Heaven (Breeze Mix)
06. Re-Con - Save The Rave
07. M&C feat. Rebecca Rudd - Magic Touch (Squad-E Mix)
08. Breeze vs. Unique - Sometimes
09. Styles & Breeze - Electric (Specialist Sound Mix)
10. Katie Jewels - Burning Love (Breeze Mix)
11. GSDX - The Dream (Breeze Mix)
12. DJ Demand - Dark & Light (Re-Con Mix)
13. Styles & Breeze - Come With Me (Unique Mix)
14. Breeze & Ritmen - If I Were You
15. Breeze & UFO - Maybe
16. Breeze & Ritmen - Don't Go Away
17. Styles & Breeze - Do You Want Me Honey (Force & Ritmen Xtreme Mix)
18. Breeze & UFO - Filthy

CD3: Hixxy Tracks And Remixes (1:11:37)

01. Hixxy - Take Me to Heaven (feat. Taya)
02. Hixxy, Dougal & Gammer - Phaze 2 Phaze
03. Frisco - Sea of Love (Hixxy remix)
04. Hixxy & Re-Con - Need Your Loving
05. Hixxy - Time Comes (Sy & Unknown remix)
06. Starstylerz - Keep on Moving (feat. Michy) (Hixxy remix)
07. Hixxy, Sy & Unknown - Be the One
08. Hixxy - New Day
09. Hixxy & Re-Con - Dance With Me
10. Hixxy, Dougal & Gammer - Dark Skies
11. Hixxy - Perfect World
12. Hixxy, Sy & Unknown - The 'C' Commander
13. Hixxy & Re-Con - Love Comes Version 1.1
14. Hixxy - Love Leaves No Scar
15. Hixxy & Storm - Jump & Pump
16. Ultrabeat vs. Darren Styles - Sure Feels Good (Hixxy, Sy & Unknown remix)

-

Лог создания рипа CD1

Exact Audio Copy V0.99 prebeta 4 from 23. January 2008Отчёт EAC об извлечении, выполненном 2. марта 2013, 12:36Various / Clubland X-Treme Hardcore 4 (CD1) - Mixed By Darren StylesДисковод: Optiarc DVD RW AD-7261S Adapter: 1 ID: 1Режим чтения : ДостоверностьИспользование точного потока : ДаОтключение кэша аудио : ДаИспользование указателей C2 : НетКоррекция смещения при чтении : 48Способность читать области Lead-in и Lead-out : НетЗаполнение пропущенных сэмплов тишиной : ДаУдаление блоков с тишиной в начале и конце : НетПри вычислениях CRC использовались нулевые сэмплы : ДаИнтерфейс : Встроенный Win32-интерфейс для Win NT/2000Выходной формат : Внутренние WAV-операцииФормат сэмплов : 44.100 Гц; 16 бит; стереоTOC извлечённого CD Трек | Старт | Длительность | Начальный сектор | Конечный сектор --------------------------------------------------------------------- 1 | 0:00.00 | 1:02.64 | 0 | 4713 2 | 1:02.64 | 4:51.38 | 4714 | 26576 3 | 5:54.27 | 3:54.33 | 26577 | 44159 4 | 9:48.60 | 3:36.24 | 44160 | 60383 5 | 13:25.09 | 5:14.00 | 60384 | 83933 6 | 18:39.09 | 3:43.21 | 83934 | 100679 7 | 22:22.30 | 4:50.21 | 100680 | 122450 8 | 27:12.51 | 3:08.74 | 122451 | 136624 9 | 30:21.50 | 4:28.54 | 136625 | 156778 10 | 34:50.29 | 4:52.28 | 156779 | 178706 11 | 39:42.57 | 4:16.02 | 178707 | 197908 12 | 43:58.59 | 3:15.29 | 197909 | 212562 13 | 47:14.13 | 4:57.18 | 212563 | 234855 14 | 52:11.31 | 4:16.59 | 234856 | 254114 15 | 56:28.15 | 3:20.72 | 254115 | 269186 16 | 59:49.12 | 4:04.42 | 269187 | 287528 17 | 63:53.54 | 4:51.22 | 287529 | 309375 18 | 68:45.01 | 3:32.08 | 309376 | 325283 19 | 72:17.09 | 4:52.43 | 325284 | 347226Характеристики диапазона извлечения и сообщения об ошибкахВыбранный диапазон Имя файла C:\Users\Meijin\Desktop\Новая папка (4)\Various - Clubland X-Treme Hardcore 4 (CD1) - Mixed By Darren Styles.wav Пиковый уровень 100.0 % Качество диапазона 100.0 % CRC теста C3EC2023 CRC копии C3EC2023 Копирование... OKОшибок не произошлоAccurateRip: сводкаТрек 1 точное извлечение (доверие 4) [0CD17705]Трек 2 точное извлечение (доверие 4) [7FF1BF26]Трек 3 точное извлечение (доверие 4) [844887EC]Трек 4 точное извлечение (доверие 4) [55CFEF64]Трек 5 точное извлечение (доверие 4) [5393E5B6]Трек 6 точное извлечение (доверие 4) [9D56D8F8]Трек 7 точное извлечение (доверие 4) [79F8E3AC]Трек 8 точное извлечение (доверие 4) [2D289BF2]Трек 9 точное извлечение (доверие 4) [6BAC14DD]Трек 10 точное извлечение (доверие 4) [F8B7B270]Трек 11 точное извлечение (доверие 4) [278E4E1B]Трек 12 точное извлечение (доверие 4) [148FAD85]Трек 13 точное извлечение (доверие 4) [7DA7241B]Трек 14 точное извлечение (доверие 4) [7EAEA75E]Трек 15 точное извлечение (доверие 3) [E956E68A]Трек 16 точное извлечение (доверие 4) [8743924E]Трек 17 точное извлечение (доверие 3) [2AD9BC87]Трек 18 точное извлечение (доверие 4) [8E1BD709]Трек 19 точное извлечение (доверие 3) [4DF39AF2]Все треки извлечены точноКонец отчёта

Лог создания рипа CD2

Exact Audio Copy V0.99 prebeta 4 from 23. January 2008Отчёт EAC об извлечении, выполненном 2. марта 2013, 13:13Various / Clubland X-Treme Hardcore 4 (CD2) - Mixed By BreezeДисковод: Optiarc DVD RW AD-7261S Adapter: 1 ID: 1Режим чтения : ДостоверностьИспользование точного потока : ДаОтключение кэша аудио : ДаИспользование указателей C2 : НетКоррекция смещения при чтении : 48Способность читать области Lead-in и Lead-out : НетЗаполнение пропущенных сэмплов тишиной : ДаУдаление блоков с тишиной в начале и конце : НетПри вычислениях CRC использовались нулевые сэмплы : ДаИнтерфейс : Встроенный Win32-интерфейс для Win NT/2000Выходной формат : Внутренние WAV-операцииФормат сэмплов : 44.100 Гц; 16 бит; стереоTOC извлечённого CD Трек | Старт | Длительность | Начальный сектор | Конечный сектор --------------------------------------------------------------------- 1 | 0:00.00 | 5:44.55 | 0 | 25854 2 | 5:44.55 | 3:27.69 | 25855 | 41448 3 | 9:12.49 | 3:41.67 | 41449 | 58090 4 | 12:54.41 | 4:51.51 | 58091 | 79966 5 | 17:46.17 | 2:54.34 | 79967 | 93050 6 | 20:40.51 | 4:12.42 | 93051 | 111992 7 | 24:53.18 | 4:04.17 | 111993 | 130309 8 | 28:57.35 | 6:09.57 | 130310 | 158041 9 | 35:07.17 | 4:27.69 | 158042 | 178135 10 | 39:35.11 | 4:15.27 | 178136 | 197287 11 | 43:50.38 | 4:16.59 | 197288 | 216546 12 | 48:07.22 | 5:43.49 | 216547 | 242320 13 | 53:50.71 | 3:56.67 | 242321 | 260087 14 | 57:47.63 | 4:57.20 | 260088 | 282382 15 | 62:45.08 | 4:15.29 | 282383 | 301536 16 | 67:00.37 | 3:15.30 | 301537 | 316191 17 | 70:15.67 | 3:40.41 | 316192 | 332732 18 | 73:56.33 | 3:22.26 | 332733 | 347908Характеристики диапазона извлечения и сообщения об ошибкахВыбранный диапазон Имя файла C:\Users\Meijin\Desktop\Новая папка (4)\Various - Clubland X-Treme Hardcore 4 (CD2) - Mixed By Breeze.wav Пиковый уровень 100.0 % Качество диапазона 100.0 % CRC теста E1DBD5CA CRC копии E1DBD5CA Копирование... OKОшибок не произошлоAccurateRip: сводкаТрек 1 точное извлечение (доверие 4) [4C6DF31B]Трек 2 точное извлечение (доверие 4) [D5247514]Трек 3 точное извлечение (доверие 4) [848ABF11]Трек 4 точное извлечение (доверие 4) [8295861D]Трек 5 точное извлечение (доверие 4) [714BF3C2]Трек 6 точное извлечение (доверие 4) [A0BFCFFA]Трек 7 точное извлечение (доверие 4) [6B38E0F7]Трек 8 точное извлечение (доверие 4) [7DA96772]Трек 9 точное извлечение (доверие 4) [D040A02C]Трек 10 точное извлечение (доверие 4) [D61062B4]Трек 11 точное извлечение (доверие 4) [A202A21E]Трек 12 точное извлечение (доверие 4) [E93EF7A9]Трек 13 точное извлечение (доверие 4) [A74F341B]Трек 14 точное извлечение (доверие 4) [E1F3CD13]Трек 15 точное извлечение (доверие 4) [D40B92EA]Трек 16 точное извлечение (доверие 4) [2AE022E0]Трек 17 точное извлечение (доверие 3) [E69C6C12]Трек 18 точное извлечение (доверие 3) [34BA4710]Все треки извлечены точноКонец отчёта

Лог создания рипа CD3

Exact Audio Copy V0.99 prebeta 4 from 23. January 2008Отчёт EAC об извлечении, выполненном 2. марта 2013, 14:36Various / Clubland X-Treme Hardcore 4 (CD3) - Mixed By HixxyДисковод: Optiarc DVD RW AD-7261S Adapter: 1 ID: 1Режим чтения : ДостоверностьИспользование точного потока : ДаОтключение кэша аудио : ДаИспользование указателей C2 : НетКоррекция смещения при чтении : 48Способность читать области Lead-in и Lead-out : НетЗаполнение пропущенных сэмплов тишиной : ДаУдаление блоков с тишиной в начале и конце : НетПри вычислениях CRC использовались нулевые сэмплы : ДаИнтерфейс : Встроенный Win32-интерфейс для Win NT/2000Выходной формат : Внутренние WAV-операцииФормат сэмплов : 44.100 Гц; 16 бит; стереоTOC извлечённого CD Трек | Старт | Длительность | Начальный сектор | Конечный сектор --------------------------------------------------------------------- 1 | 0:00.00 | 4:53.24 | 0 | 21998 2 | 4:53.24 | 4:21.36 | 21999 | 41609 3 | 9:14.60 | 5:12.34 | 41610 | 65043 4 | 14:27.19 | 4:32.71 | 65044 | 85514 5 | 19:00.15 | 3:40.37 | 85515 | 102051 6 | 22:40.52 | 3:16.48 | 102052 | 116799 7 | 25:57.25 | 4:32.38 | 116800 | 137237 8 | 30:29.63 | 4:53.56 | 137238 | 159268 9 | 35:23.44 | 4:32.70 | 159269 | 179738 10 | 39:56.39 | 4:54.00 | 179739 | 201788 11 | 44:50.39 | 4:43.08 | 201789 | 223021 12 | 49:33.47 | 3:34.39 | 223022 | 239110 13 | 53:08.11 | 4:31.51 | 239111 | 259486 14 | 57:39.62 | 4:43.31 | 259487 | 280742 15 | 62:23.18 | 4:46.57 | 280743 | 302249 16 | 67:10.00 | 4:26.71 | 302250 | 322270Характеристики диапазона извлечения и сообщения об ошибкахВыбранный диапазон Имя файла C:\Users\Meijin\Desktop\Новая папка (4)\Various - Clubland X-Treme Hardcore 4 (CD3) - Mixed By Hixxy.wav Пиковый уровень 100.0 % Качество диапазона 100.0 % CRC теста D855B09A CRC копии D855B09A Копирование... OKОшибок не произошлоAccurateRip: сводкаТрек 1 точное извлечение (доверие 4) [85F0DD0E]Трек 2 точное извлечение (доверие 4) [90D6C833]Трек 3 точное извлечение (доверие 4) [B1B35720]Трек 4 точное извлечение (доверие 4) [6D0FE187]Трек 5 точное извлечение (доверие 4) [AE594CDF]Трек 6 точное извлечение (доверие 4) [D23B7B41]Трек 7 точное извлечение (доверие 4) [F0A13F1A]Трек 8 точное извлечение (доверие 4) [F6B10DEC]Трек 9 точное извлечение (доверие 4) [038F92C9]Трек 10 точность не определена (достоверность 4) [7A4E88B4], AccurateRip вернул [83741127]Трек 11 точное извлечение (доверие 4) [C4F88CBC]Трек 12 точное извлечение (доверие 4) [18B32C75]Трек 13 точное извлечение (доверие 4) [9590CBCC]Трек 14 точное извлечение (доверие 4) [E71D9882]Трек 15 точное извлечение (доверие 4) [19C1F388]Трек 16 точное извлечение (доверие 3) [3F7C277E]15 трек(и) скопированы точно 1 трек(и) не удалось проверить на точностьНекоторые треки не прошли проверку на точностьКонец отчёта

VA - Clubland X-Treme Hardcore 5 - 2008, [3xCD], (Universal Music TV - [531 503-9]) /3:36:46/

Треклист:
CD1: Mixed By Darren Styles (1:06:29)
01. Ultrabeat Vs Darren Styles - Discolights
02. Styles & Breeze - Amigos
03. Manian - Turn The Tide (Ds Mix)
04. Darren Styles - Sorry
05. DJ Fear - First Serve (Dougal & Gammer Mix)
06. Al Storm & Euphony Feat. Donna Marie - All I Wanna Do
07. Fragma - Toca's Miracle '08 (Ds Mix)
08. Re-Con & Squad-E - Cut & Recycle
09. Manian - Welcome To The Club (Ds Mix)
10. Darren Styles Feat. Justine - Tell Me (Re-Con Mix)
11. Al Storm Feat. Malaya - It's Over (Ds Mix)
12. Re-Con & Squad-E - Why Does My Heart
13. United In Dance - The Horns Of Jericho (Dougal & Gammer Mix)
14. Azura - The Heartache
15. United In Dance - 1,2,3,4
16. Re-Con & Chris Unknown - Please Tell Me
17. Jamie Ritman - Touch The Sun (Ds Mix)
18. Darren Styles - Flashlight

CD2: Mixed By Breeze (1:10:24)

01. Breeze V Barley Feat. Taya - Falling
02. Cascada - Because The Night (Breeze & Unknown Remix)
03. E-Type - True Believer (Styles & Breeze Remix)
04. Sugababes - About You Now (Breeze & Unknown Remix)
05. BassFreakerz - Cry For You (Darren Styles Remix)
06. Mickey Modelle - Take Me Away (Breeze & Ufo Remix)
07. Styles & Breeze - Weekend Has Come
08. Breeze & Ufo - X-Rated
09. Rob Mayth - Heart 2 Heart (Breeze & Ritmen Remix)
10. Breeze & Styles - Futureset 08
11. Darwin & In Effect Feat. Fraz - Only Road (Breeze Remix)
12. Breeze & Chris Unknown - Don't Walk Away
13. Azura - Tell You A Secret (Breeze Remix)
14. Jamie Ritmen - Bassphaze
15. Club Generation - Every Heartbeat
16. Breeze V Brad Shure Feat. Katie Halliday - Summer Rain
17. Barley Feat. Taya - Feeling So Alive
18. Styles, Breeze & Re-Con - Love Sick Crazy
19. Breeze & Chris Unknown - One Desire

CD3: Hixxy Bonus CD (1:19:52)

01. Hixxy - Deep In The Night
02. Hixxy & Re-Con - The Way
03. Hixxy - No 1
04. United In Dance - Do It Like This
05. Hixxy - Face In The Crowd
06. Hixxy - Brother (Guiding Light)
07. The Real Booty Babes - Played A-Live (Ds Remix)
08. Hixxy - Now That I Found You
09. Paul EP & Smithy - Walk On Water (Hixxy Remix)
10. Hixxy & Chris Unknown - Get Up Get On Your Feet 1,2,3
11. Hixxy - There When You Fall
12. The Real Booty Babes - I Kissed A Girl (Dougal & Gammer Remix)
13. Hixxy & Technikore - Mdma
14. LOL - Love Leaves No Scar (Hixxy Remix)
15. Ultrabeat - Never Ever (Chris Unknown Remix)
16. Hixxy - The Game, Zaboocan
17. Hixxy & Chris Unknown - Solitary Rush
18. Hixxy & Storm - Living In A Dream
19. Technikore Feat. Nathalie - Calling Out For You

-

Лог создания рипа CD1

Exact Audio Copy V0.99 prebeta 4 from 23. January 2008
Отчёт EAC об извлечении, выполненном 5. апреля 2013, 7:00
Various / Clubland X-treme Hardcore 5 (CD1) - Mixed By Darren Styles
Дисковод: Optiarc DVD RW AD-7261S Adapter: 1 ID: 1
Режим чтения : ДостоверностьИспользование точного потока : ДаОтключение кэша аудио : ДаИспользование указателей C2 : Нет
Коррекция смещения при чтении : 48Способность читать области Lead-in и Lead-out : НетЗаполнение пропущенных сэмплов тишиной : ДаУдаление блоков с тишиной в начале и конце : НетПри вычислениях CRC использовались нулевые сэмплы : ДаИнтерфейс : Встроенный Win32-интерфейс для Win NT/2000
Выходной формат : Внутренние WAV-операцииФормат сэмплов : 44.100 Гц; 16 бит; стерео
TOC извлечённого CD
Трек | Старт | Длительность | Начальный сектор | Конечный сектор --------------------------------------------------------------------- 1 | 0:00.00 | 3:27.11 | 0 | 15535 2 | 3:27.11 | 4:36.19 | 15536 | 36254 3 | 8:03.30 | 3:43.20 | 36255 | 52999 4 | 11:46.50 | 4:01.30 | 53000 | 71104 5 | 15:48.05 | 2:04.13 | 71105 | 80417 6 | 17:52.18 | 3:58.45 | 80418 | 98312 7 | 21:50.63 | 4:04.15 | 98313 | 116627 8 | 25:55.03 | 3:57.30 | 116628 | 134432 9 | 29:52.33 | 3:28.26 | 134433 | 150058 10 | 33:20.59 | 3:10.40 | 150059 | 164348 11 | 36:31.24 | 3:20.69 | 164349 | 179417 12 | 39:52.18 | 4:36.07 | 179418 | 200124 13 | 44:28.25 | 3:35.06 | 200125 | 216255 14 | 48:03.31 | 2:27.66 | 216256 | 227346 15 | 50:31.22 | 3:08.38 | 227347 | 241484 16 | 53:39.60 | 3:44.40 | 241485 | 258324 17 | 57:24.25 | 3:55.62 | 258325 | 276011 18 | 61:20.12 | 5:08.69 | 276012 | 299180
Характеристики диапазона извлечения и сообщения об ошибках
Выбранный диапазон
Имя файла C:\Users\Meijin\Desktop\Новая папка (4)\Various - Clubland X-treme Hardcore 5 (CD1) - Mixed By Darren Styles.wav
Пиковый уровень 99.3 % Качество диапазона 99.9 % CRC теста BB5649AE CRC копии BB5649AE Копирование... OK
Ошибок не произошло
AccurateRip: сводка
Трек 1 точное извлечение (доверие 3) [00D37496]Трек 2 точное извлечение (доверие 4) [3D40C028]Трек 3 точное извлечение (доверие 4) [5F86FCA2]Трек 4 точное извлечение (доверие 4) [8F16AFC5]Трек 5 точное извлечение (доверие 4) [2E341738]Трек 6 точное извлечение (доверие 4) [D2CE16FA]Трек 7 точное извлечение (доверие 4) [5820389F]Трек 8 точное извлечение (доверие 4) [CB972A74]Трек 9 точное извлечение (доверие 4) [8B4DEB9B]Трек 10 точное извлечение (доверие 4) [EC852C8B]Трек 11 точное извлечение (доверие 4) [D6518580]Трек 12 точное извлечение (доверие 4) [7343B11C]Трек 13 точное извлечение (доверие 4) [587F2462]Трек 14 точное извлечение (доверие 4) [3C7443E0]Трек 15 точное извлечение (доверие 4) [7A396B41]Трек 16 точное извлечение (доверие 4) [FCB9A07F]Трек 17 точное извлечение (доверие 4) [3782BFA5]Трек 18 точное извлечение (доверие 4) [A16038F0]
Все треки извлечены точно
Конец отчёта

Лог создания рипа CD2

Exact Audio Copy V0.99 prebeta 4 from 23. January 2008
Отчёт EAC об извлечении, выполненном 5. апреля 2013, 7:39
Various / Clubland X-treme Hardcore 5 (CD2) - Mixed By Breeze
Дисковод: Optiarc DVD RW AD-7261S Adapter: 1 ID: 1
Режим чтения : ДостоверностьИспользование точного потока : ДаОтключение кэша аудио : ДаИспользование указателей C2 : Нет
Коррекция смещения при чтении : 48Способность читать области Lead-in и Lead-out : НетЗаполнение пропущенных сэмплов тишиной : ДаУдаление блоков с тишиной в начале и конце : НетПри вычислениях CRC использовались нулевые сэмплы : ДаИнтерфейс : Встроенный Win32-интерфейс для Win NT/2000
Выходной формат : Внутренние WAV-операцииФормат сэмплов : 44.100 Гц; 16 бит; стерео
TOC извлечённого CD
Трек | Старт | Длительность | Начальный сектор | Конечный сектор --------------------------------------------------------------------- 1 | 0:00.00 | 3:38.03 | 0 | 16352 2 | 3:38.03 | 4:11.50 | 16353 | 35227 3 | 7:49.53 | 2:39.57 | 35228 | 47209 4 | 10:29.35 | 4:01.28 | 47210 | 65312 5 | 14:30.63 | 3:55.67 | 65313 | 83004 6 | 18:26.55 | 4:12.26 | 83005 | 101930 7 | 22:39.06 | 3:58.49 | 101931 | 119829 8 | 26:37.55 | 1:49.50 | 119830 | 128054 9 | 28:27.30 | 3:42.15 | 128055 | 144719 10 | 32:09.45 | 3:24.25 | 144720 | 160044 11 | 35:33.70 | 4:44.43 | 160045 | 181387 12 | 40:18.38 | 3:41.36 | 181388 | 197998 13 | 43:59.74 | 2:54.07 | 197999 | 211055 14 | 46:54.06 | 2:35.62 | 211056 | 222742 15 | 49:29.68 | 4:01.73 | 222743 | 240890 16 | 53:31.66 | 3:18.64 | 240891 | 255804 17 | 56:50.55 | 3:39.32 | 255805 | 272261 18 | 60:30.12 | 5:20.69 | 272262 | 296330 19 | 65:51.06 | 4:33.29 | 296331 | 316834
Характеристики диапазона извлечения и сообщения об ошибках
Выбранный диапазон
Имя файла C:\Users\Meijin\Desktop\Новая папка (4)\Various - Clubland X-treme Hardcore 5 (CD2) - Mixed By Breeze.wav
Пиковый уровень 99.4 % Качество диапазона 100.0 % CRC теста 6FE54A81 CRC копии 6FE54A81 Копирование... OK
Ошибок не произошло
AccurateRip: сводка
Трек 1 точное извлечение (доверие 3) [982C051E]Трек 2 точное извлечение (доверие 4) [09F9E74A]Трек 3 точное извлечение (доверие 4) [F3D5BB7C]Трек 4 точное извлечение (доверие 4) [026EEDD6]Трек 5 точное извлечение (доверие 4) [6234C999]Трек 6 точное извлечение (доверие 4) [125C7B3C]Трек 7 точное извлечение (доверие 4) [20780E5C]Трек 8 точное извлечение (доверие 4) [5C4CD632]Трек 9 точное извлечение (доверие 4) [6AE6C082]Трек 10 точное извлечение (доверие 4) [387932F0]Трек 11 точное извлечение (доверие 4) [83E7B1BA]Трек 12 точное извлечение (доверие 4) [4517480C]Трек 13 точное извлечение (доверие 4) [B30113C2]Трек 14 точное извлечение (доверие 4) [BB872BC4]Трек 15 точное извлечение (доверие 4) [54E0A151]Трек 16 точное извлечение (доверие 4) [70634622]Трек 17 точное извлечение (доверие 4) [C4FBEF53]Трек 18 точное извлечение (доверие 4) [9EA6B5A2]Трек 19 точное извлечение (доверие 4) [0F9FC5A1]
Все треки извлечены точно
Конец отчёта

Лог создания рипа CD3

Exact Audio Copy V0.99 prebeta 4 from 23. January 2008
Отчёт EAC об извлечении, выполненном 5. апреля 2013, 8:17
Various / Clubland X-treme Hardcore 5 (CD3) - Hixxy Bonus CD
Дисковод: Optiarc DVD RW AD-7261S Adapter: 1 ID: 1
Режим чтения : ДостоверностьИспользование точного потока : ДаОтключение кэша аудио : ДаИспользование указателей C2 : Нет
Коррекция смещения при чтении : 48Способность читать области Lead-in и Lead-out : НетЗаполнение пропущенных сэмплов тишиной : ДаУдаление блоков с тишиной в начале и конце : НетПри вычислениях CRC использовались нулевые сэмплы : ДаИнтерфейс : Встроенный Win32-интерфейс для Win NT/2000
Выходной формат : Внутренние WAV-операцииФормат сэмплов : 44.100 Гц; 16 бит; стерео
TOC извлечённого CD
Трек | Старт | Длительность | Начальный сектор | Конечный сектор --------------------------------------------------------------------- 1 | 0:00.00 | 5:48.59 | 0 | 26158 2 | 5:48.59 | 4:40.35 | 26159 | 47193 3 | 10:29.19 | 4:39.43 | 47194 | 68161 4 | 15:08.62 | 3:34.66 | 68162 | 84277 5 | 18:43.53 | 4:30.11 | 84278 | 104538 6 | 23:13.64 | 4:21.48 | 104539 | 124161 7 | 27:35.37 | 4:41.64 | 124162 | 145300 8 | 32:17.26 | 4:08.33 | 145301 | 163933 9 | 36:25.59 | 3:47.43 | 163934 | 181001 10 | 40:13.27 | 3:03.29 | 181002 | 194755 11 | 43:16.56 | 4:40.37 | 194756 | 215792 12 | 47:57.18 | 3:03.32 | 215793 | 229549 13 | 51:00.50 | 3:57.13 | 229550 | 247337 14 | 54:57.63 | 3:57.38 | 247338 | 265150 15 | 58:55.26 | 4:20.15 | 265151 | 284665 16 | 63:15.41 | 4:18.74 | 284666 | 304089 17 | 67:34.40 | 3:46.11 | 304090 | 321050 18 | 71:20.51 | 4:51.42 | 321051 | 342917 19 | 76:12.18 | 3:39.61 | 342918 | 359403
Характеристики диапазона извлечения и сообщения об ошибках
Выбранный диапазон
Имя файла C:\Users\Meijin\Desktop\Новая папка (4)\Various - Clubland X-treme Hardcore 5 (CD3) - Hixxy Bonus CD.wav
Пиковый уровень 100.0 % Качество диапазона 100.0 % CRC теста 34055106 CRC копии 34055106 Копирование... OK
Ошибок не произошло
AccurateRip: сводка
Трек 1 точное извлечение (доверие 5) [7070251C]Трек 2 точное извлечение (доверие 5) [4568315B]Трек 3 точное извлечение (доверие 5) [3CC6F1D9]Трек 4 точное извлечение (доверие 5) [00B636BA]Трек 5 точное извлечение (доверие 5) [B079DF86]Трек 6 точное извлечение (доверие 5) [3C833372]Трек 7 точное извлечение (доверие 5) [1147FF70]Трек 8 точное извлечение (доверие 5) [0AA6CC0B]Трек 9 точное извлечение (доверие 5) [16C96222]Трек 10 точное извлечение (доверие 5) [47B91D86]Трек 11 точное извлечение (доверие 5) [F43DF677]Трек 12 точное извлечение (доверие 5) [E77E57C7]Трек 13 точное извлечение (доверие 5) [4B956175]Трек 14 точное извлечение (доверие 5) [D976C925]Трек 15 точное извлечение (доверие 5) [C219D3F4]Трек 16 точное извлечение (доверие 5) [BF0CC912]Трек 17 точное извлечение (доверие 5) [7F77ABD3]Трек 18 точное извлечение (доверие 5) [F8283E89]Трек 19 точное извлечение (доверие 5) [0A9D9F49]
Все треки извлечены точно
Конец отчёта

VA - Clubland X-Treme Hardcore 6 - 2009, [3xCD], (Universal Music TV - [5323954]) /3:35:16/

Треклист:
CD1: Мixed by Darren Styles (1:12:49)
01. Intro
02. Darren Styles & Manian - Outta My Head
03. Dougal & Gammer - Models Are Ugly
04. John O'Callaghan - Find Yourself (DS mix)
05. Chris Fear - Rock 'n' Roller
06. Cascada - Everytime I Hear Your Name (Dougal & Gammer mix)
07. Re-Con - Fuel To Fire
08. Dougal & Gammer - Anybody Else But You
09. Darren Styles - Bassline Road
10. Tom Par - Missing You (Gammer mix)
11. DJ Gollum - Passenger
12. Styles & Breeze - Electric 2010
13. Odyssey, Modulate & Petruccio - Stairway To Heaven
14. Darren Styles & Chris Unknown feat. Molly - Shining Star
15. Re-Con - Kidz
16. Darren Styles - Do You Feel The Same
17. Technikore feat. Nat - Runaway (Breeze mix)
18. JB-C - Rock 1 Time
19. Sy & Unknown - Move It
20. Kirsten Joy - Only Your Love (Chris Unknown & Re-Con)

CD2: Мixed by Breeze (1:14:24)

01. MC Whizzkid - The Ringmaster (Intro)
02. Ultrabeat - Use Somebody (Chris Unknown remix)
03. Styles & Breeze - Sonic 2010
04. Breeze vs. Beat Commanders feat. MOB - Party Vibe
05. Breeze & Re-Con - Twist
06. Master Blaster - Everywhere (Breeze & UFO remix)
07. Keira Green - All Out Of Love (Azora remix)
08. Breeze & UFO - Hardcore Orchestra
09. Frisco & Alexia - Me And You (Breeze remix)
10. Kaskade & Deadmau5 - Move For Me (Dougal & Gammer remix)
11. Beat Commanders - Make You Mine (Supreme, UFO & MOB remix)
12. Dougal & Gammer - Boing!
13. Scooter - I'm Lonely (Breeze & Ritmen remix)
14. Re-Con - Torn Apart
15. Italo Brothers - Stamp On The Ground (Breeze remix)
16. Dougal & Gammer - Break It
17. Breeze vs. UFO & Lost Witness - Love To The Stars
18. Sy & Unknown - Electronic VIP
19. Breeze vs. Unique - Reach Out
20. Styles & Breeze feat. Karen Danzig - Heartbeatz (Specialist Sound remix)

CD3: Bonus Hixxy CD (1:08:03)

01. Dougal & Gammer - Shine Your Light
02. Al Storm feat. Amy - Surrender (Clubland mix)
03. Ramos, Punch & Protocol feat. M.C. Drew - Summer Love (Hixxy remix)
04. AudioJunkie & Stylus - Taken Over Me
05. Hixxy & Technikore - Now You Got Me
06. Re-Con - Without A Doubt
07. Hixxy & Sy - Dum, Der Did It Dit It
08. Al Storm & Euphony feat. Dannielle - Turn Around 2009-10
09. Dougal & Gammer - Boom Da De
10. Hixxy - Million Miles
11. Sy & Unknown feat. Emily Reed - Digital Lover (Re-Con remix)
12. Hixxy - Kaleidoscope
13. Re-Con - Walking Time Bomb
14. JB-C - Clubwalker
15. MC Storm - H»A»R»D C.O.R.E.
16. Hixxy & Technikore - Re-Loaded
17. Cadence - I Surrender (Hixxy Hardcore remix)
18. D-Code - Make You Love Me (Squad-E remix)

-

Лог создания рипа CD1

Exact Audio Copy V0.99 prebeta 4 from 23. January 2008
Отчёт EAC об извлечении, выполненном 25. февраля 2013, 21:46
Various Artists / Clubland X-Treme Hardcore 6 (CD1) - Mixed by Darren Styles
Дисковод: Optiarc DVD RW AD-7261S Adapter: 1 ID: 1
Режим чтения : ДостоверностьИспользование точного потока : ДаОтключение кэша аудио : ДаИспользование указателей C2 : Нет
Коррекция смещения при чтении : 48Способность читать области Lead-in и Lead-out : НетЗаполнение пропущенных сэмплов тишиной : ДаУдаление блоков с тишиной в начале и конце : НетПри вычислениях CRC использовались нулевые сэмплы : ДаИнтерфейс : Встроенный Win32-интерфейс для Win NT/2000
Выходной формат : Внутренние WAV-операцииФормат сэмплов : 44.100 Гц; 16 бит; стерео
TOC извлечённого CD
Трек | Старт | Длительность | Начальный сектор | Конечный сектор --------------------------------------------------------------------- 1 | 0:00.00 | 0:32.64 | 0 | 2463 2 | 0:32.64 | 3:55.63 | 2464 | 20151 3 | 4:28.52 | 3:21.13 | 20152 | 35239 4 | 7:49.65 | 3:53.46 | 35240 | 52760 5 | 11:43.36 | 3:34.34 | 52761 | 68844 6 | 15:17.70 | 4:09.55 | 68845 | 87574 7 | 19:27.50 | 4:04.13 | 87575 | 105887 8 | 23:31.63 | 4:19.32 | 105888 | 125344 9 | 27:51.20 | 4:26.51 | 125345 | 145345 10 | 32:17.71 | 3:43.02 | 145346 | 162072 11 | 36:00.73 | 2:57.46 | 162073 | 175393 12 | 38:58.44 | 3:09.63 | 175394 | 189631 13 | 42:08.32 | 4:37.65 | 189632 | 210471 14 | 46:46.22 | 4:08.08 | 210472 | 229079 15 | 50:54.30 | 4:48.41 | 229080 | 250720 16 | 55:42.71 | 4:48.41 | 250721 | 272361 17 | 60:31.37 | 2:57.42 | 272362 | 285678 18 | 63:29.04 | 2:33.36 | 285679 | 297189 19 | 66:02.40 | 2:48.29 | 297190 | 309818 20 | 68:50.69 | 3:57.70 | 309819 | 327663
Характеристики диапазона извлечения и сообщения об ошибках
Выбранный диапазон
Имя файла C:\Users\Meijin\Desktop\Новая папка (4)\Various Artists - Clubland X-Treme Hardcore 6 (CD1) - Mixed by Darren Styles.wav
Пиковый уровень 99.9 % Качество диапазона 100.0 % CRC теста 24AAF293 CRC копии 24AAF293 Копирование... OK
Ошибок не произошло
AccurateRip: сводка
Трек 1 точное извлечение (доверие 3) [730774F3]Трек 2 точное извлечение (доверие 3) [4AC5B877]Трек 3 точное извлечение (доверие 3) [AF5A0DF2]Трек 4 точное извлечение (доверие 3) [11D0046F]Трек 5 точное извлечение (доверие 3) [5DC6D8A5]Трек 6 точное извлечение (доверие 3) [35AC7FC8]Трек 7 точное извлечение (доверие 3) [D3C292DA]Трек 8 точное извлечение (доверие 3) [7E3AE34E]Трек 9 точное извлечение (доверие 3) [4D221C3F]Трек 10 точное извлечение (доверие 3) [B145971D]Трек 11 точное извлечение (доверие 3) [8F3E05C7]Трек 12 точное извлечение (доверие 3) [5120CCBB]Трек 13 точное извлечение (доверие 3) [1D9D1467]Трек 14 точное извлечение (доверие 3) [C604A1C1]Трек 15 точное извлечение (доверие 3) [6CED0A96]Трек 16 точное извлечение (доверие 3) [C6A0D716]Трек 17 точное извлечение (доверие 3) [6BB6FA60]Трек 18 точное извлечение (доверие 3) [E22F31E8]Трек 19 точное извлечение (доверие 3) [222B8111]Трек 20 точное извлечение (доверие 3) [9D910D14]
Все треки извлечены точно
Конец отчёта

Лог создания рипа CD2

Exact Audio Copy V0.99 prebeta 4 from 23. January 2008
Отчёт EAC об извлечении, выполненном 25. февраля 2013, 22:25
Various / Clubland X-Treme Hardcore 6 (CD2) - Mixed by Breeze
Дисковод: Optiarc DVD RW AD-7261S Adapter: 1 ID: 1
Режим чтения : ДостоверностьИспользование точного потока : ДаОтключение кэша аудио : ДаИспользование указателей C2 : Нет
Коррекция смещения при чтении : 48Способность читать области Lead-in и Lead-out : НетЗаполнение пропущенных сэмплов тишиной : ДаУдаление блоков с тишиной в начале и конце : НетПри вычислениях CRC использовались нулевые сэмплы : ДаИнтерфейс : Встроенный Win32-интерфейс для Win NT/2000
Выходной формат : Внутренние WAV-операцииФормат сэмплов : 44.100 Гц; 16 бит; стерео
TOC извлечённого CD
Трек | Старт | Длительность | Начальный сектор | Конечный сектор --------------------------------------------------------------------- 1 | 0:00.00 | 0:26.23 | 0 | 1972 2 | 0:26.23 | 4:48.45 | 1973 | 23617 3 | 5:14.68 | 4:09.53 | 23618 | 42345 4 | 9:24.46 | 4:04.07 | 42346 | 60652 5 | 13:28.53 | 4:20.27 | 60653 | 80179 6 | 17:49.05 | 3:56.26 | 80180 | 97905 7 | 21:45.31 | 2:32.59 | 97906 | 109364 8 | 24:18.15 | 3:02.71 | 109365 | 123085 9 | 27:21.11 | 3:46.09 | 123086 | 140044 10 | 31:07.20 | 2:56.27 | 140045 | 153271 11 | 34:03.47 | 4:27.37 | 153272 | 173333 12 | 38:31.09 | 3:21.17 | 173334 | 188425 13 | 41:52.26 | 4:40.17 | 188426 | 209442 14 | 46:32.43 | 2:46.37 | 209443 | 221929 15 | 49:19.05 | 3:33.48 | 221930 | 237952 16 | 52:52.53 | 3:21.01 | 237953 | 253028 17 | 56:13.54 | 4:04.19 | 253029 | 271347 18 | 60:17.73 | 4:26.30 | 271348 | 291327 19 | 64:44.28 | 4:26.28 | 291328 | 311305 20 | 69:10.56 | 5:13.39 | 311306 | 334819
Характеристики диапазона извлечения и сообщения об ошибках
Выбранный диапазон
Имя файла C:\Users\Meijin\Desktop\Новая папка (4)\Various Artists - Clubland X-Treme Hardcore 6 (CD2) - Mixed by Breeze.wav
Пиковый уровень 99.9 % Качество диапазона 99.9 % CRC теста 695FFE65 CRC копии 695FFE65 Копирование... OK
Ошибок не произошло
AccurateRip: сводка
Трек 1 нет в базе данныхТрек 2 нет в базе данныхТрек 3 нет в базе данныхТрек 4 нет в базе данныхТрек 5 нет в базе данныхТрек 6 нет в базе данныхТрек 7 нет в базе данныхТрек 8 нет в базе данныхТрек 9 нет в базе данныхТрек 10 нет в базе данныхТрек 11 нет в базе данныхТрек 12 нет в базе данныхТрек 13 нет в базе данныхТрек 14 нет в базе данныхТрек 15 нет в базе данныхТрек 16 нет в базе данныхТрек 17 нет в базе данныхТрек 18 нет в базе данныхТрек 19 нет в базе данныхТрек 20 нет в базе данных
Ни одного трека нет в базе AccurateRip
Конец отчёта

Лог создания рипа CD3

Exact Audio Copy V0.99 prebeta 4 from 23. January 2008
Отчёт EAC об извлечении, выполненном 25. февраля 2013, 23:04
Various / Clubland X-Treme Hardcore 6 (CD3) - Mixed By Hixxy
Дисковод: Optiarc DVD RW AD-7261S Adapter: 1 ID: 1
Режим чтения : ДостоверностьИспользование точного потока : ДаОтключение кэша аудио : ДаИспользование указателей C2 : Нет
Коррекция смещения при чтении : 48Способность читать области Lead-in и Lead-out : НетЗаполнение пропущенных сэмплов тишиной : ДаУдаление блоков с тишиной в начале и конце : НетПри вычислениях CRC использовались нулевые сэмплы : ДаИнтерфейс : Встроенный Win32-интерфейс для Win NT/2000
Выходной формат : Внутренние WAV-операцииФормат сэмплов : 44.100 Гц; 16 бит; стерео
TOC извлечённого CD
Трек | Старт | Длительность | Начальный сектор | Конечный сектор --------------------------------------------------------------------- 1 | 0:00.00 | 3:59.33 | 0 | 17957 2 | 3:59.33 | 4:10.39 | 17958 | 36746 3 | 8:09.72 | 4:08.06 | 36747 | 55352 4 | 12:18.03 | 3:57.72 | 55353 | 73199 5 | 16:16.00 | 4:19.31 | 73200 | 92655 6 | 20:35.31 | 4:30.47 | 92656 | 112952 7 | 25:06.03 | 3:14.27 | 112953 | 127529 8 | 28:20.30 | 3:23.18 | 127530 | 142772 9 | 31:43.48 | 3:27.07 | 142773 | 158304 10 | 35:10.55 | 3:56.26 | 158305 | 176030 11 | 39:07.06 | 4:31.33 | 176031 | 196388 12 | 43:38.39 | 3:46.69 | 196389 | 213407 13 | 47:25.33 | 2:01.34 | 213408 | 222516 14 | 49:26.67 | 4:08.09 | 222517 | 241125 15 | 53:35.01 | 4:43.05 | 241126 | 262355 16 | 58:18.06 | 3:02.65 | 262356 | 276070 17 | 61:20.71 | 3:32.51 | 276071 | 292021 18 | 64:53.47 | 3:08.69 | 292022 | 306190
Характеристики диапазона извлечения и сообщения об ошибках
Выбранный диапазон
Имя файла C:\Users\Meijin\Desktop\Новая папка (4)\Various Artists - Clubland X-Treme Hardcore 6 (CD3) - Mixed By Hixxy.wav
Пиковый уровень 100.0 % Качество диапазона 100.0 % CRC теста 76B5B1FE CRC копии 76B5B1FE Копирование... OK
Ошибок не произошло
AccurateRip: сводка
Трек 1 точное извлечение (доверие 3) [638A65A6]Трек 2 точное извлечение (доверие 3) [D9B60AA2]Трек 3 точное извлечение (доверие 3) [729CC3DC]Трек 4 точное извлечение (доверие 3) [0DB21471]Трек 5 точное извлечение (доверие 3) [45FE02F3]Трек 6 точное извлечение (доверие 3) [2ABEDA64]Трек 7 точное извлечение (доверие 3) [F09C127C]Трек 8 точное извлечение (доверие 3) [C957A376]Трек 9 точное извлечение (доверие 3) [4EB9CC49]Трек 10 точное извлечение (доверие 3) [8CF610FB]Трек 11 точное извлечение (доверие 3) [78D0911A]Трек 12 точное извлечение (доверие 3) [134F6029]Трек 13 точное извлечение (доверие 3) [3B81FA6F]Трек 14 точное извлечение (доверие 3) [55FC5C77]Трек 15 точное извлечение (доверие 3) [3BD9E003]Трек 16 точное извлечение (доверие 3) [A27C431B]Трек 17 точное извлечение (доверие 3) [381F85CE]Трек 18 точное извлечение (доверие 3) [B3129F2D]
Все треки извлечены точно
Конец отчёта

_________________
Показать сообщения:    

Текущее время: Сегодня 17:50

Часовой пояс: GMT



Вы не можете начинать темы
Вы не можете отвечать на сообщения
Вы не можете редактировать свои сообщения
Вы не можете удалять свои сообщения
Вы не можете голосовать в опросах
Вы не можете прикреплять файлы к сообщениям
Вы не можете скачивать файлы