(UK Hardcore) VA - 100% Hardcore - 2010, [3xCD], (Decadance Recordings - [DECHUN20]), FLAC (image+.cue), lossless :: Ивановский Торрент трекер
Важное объявление!
У Нас Все раздачи мультитрекерные, при нуле пиров в релизах, можете смело вставать на закачку!
Статистика раздачи
Размер:     |    Зарегистрирован:     |    Скачан:     |   
Нет
 
     
 
 
Автор Сообщение

HUNTER

Стаж:
4 года 11 месяцев
Сообщений:
66066

Репутация: 101

[+] [-]
Вне форума [Профиль] [ЛС]

Various Artists - 100% Hardcore
Жанр: UK Hardcore
Страна-производитель диска: UK
Год издания: 2010
Издатель (лейбл): Decadance Recordings
Номер по каталогу: DECHUN20
Аудиокодек: FLAC (*.flac)
Тип рипа: image+.cue
Битрейт аудио: lossless
Продолжительность: 3:44:08
Источник (релизер): Диск из личной коллекции
Наличие сканов в содержимом раздачи: да
Треклист:
CD1: (1:13:30)
01. Billy 'Daniel' Bunter & Sparky Feat. Daniel – Ride Like The Wind (4:00)
02. Slipmatt – Breaking Free (Slipmatt & Mike Modulate Remix) (3:14)
03. Flashback Project & Angie Brown – Ease The Pressure (Rampant Remix) (3:42)
04. GBT Inc. Feat. Alison Wade – Better Day (Dougal & Gammer Remix) (3:02)
05. Junior & New Generation, The – Tears Fall (Slipmatt & Mike Modulate Remix) (3:37)
06. Bang The Future Feat. Malaya – Real World (Styles & Breeze Remix) (3:26)
07. Slippery Project – Jump Around (Eufeion Remix) (3:28)
08. SMD – SMD#2AA (Al Storm Remix) (3:53)
09. DJ Shimamura – Pioneers & Technics 3:56
10. Taya – Every Now & Then (Mike Modulate Remix) (4:05)
11. Body Grooverz – Every Little Thing (Darwin & Entity Remix) (4:04)
12. Sound Selektaz & Karen Danzig – La La La La La (Eufeion Remix) (3:20)
13. Full Time Superstars, The & Erire – Waiting For The Night (Billy 'Daniel' Bunter & Sparky Remix) (4:00)
14. Petruccio & Modulate – Give It Up (3:52)
15. Little Miss Detonate – Hard Shit (3:32)
16. Ajaay & Ron-E – The Red Pill (3:37)
17. Destiny – Get Busy (3:56)
18. Hoodzie – The Machine (3:32)
19. Miss Special K & CookiE – Have It (3:41)
20. Jervis & DJ Entertaine – Turn It Up (3:34)
CD2: (1:15:53)
01. Seduction – Hardcore Heaven (Joey Riot Remix) (3:29)
02. Ponder – New Emotion (4:18)
03. Flyin' & Sparky – Wicked Fresh (3:40)
04. UK Hardcore Feat, Niki Mak – Need Your Emotion (Dougal & Gammer Remix) (3:50)
05. Billy 'Daniel' Bunter & Jon Doe Feat. Faye Hendry – Round & Round (Sy & Unknown Remix) (4:06)
06. 3 Star Feat. Marie Louise – Flying High (3:54)
07. Energy Force Feat. Dionne – Fire In Your Eyes (3:16)
08. Billy 'Daniel' Bunter & CLSM Feat. Junior – Cry Your Tears (Eufeion Remix) (3:25)
09. Petruccio & Modulate – Wet Knickers
10. Eufeion – Rox 2010 (3:13)
11. Sound Selektaz & Alison Wade – Every Day (Sparky Remix) (3:53)
12. Full Time Super Stars, The vs. Chris Starkiller Feat. Taya – Walking On Air (Wonter Remix) (4:03)
13. Delusion – Killer (Eufeion Remix) (3:32)
14. Jonny G vs. Garfield – Spare Ticket (3:50)
15. Audio Warfare – Off World Colonies (4:06)
16. Little Miss Detonate – Arabian Nights (3:42)
17. Clowny – Hardcore Mutha (4:05)
18. Kendo – Dance Floor Destruction (4:03)
19. Chris Freefall & James Dub – Bust A New Jam (3:59)
20. Ravenatic – Ashes To Ashes (4:07)
CD3: (1:14:44)
01. SL2 – On A Ragga Tip (Slipmatt & Mike Modulate Remix) (3:42)
02. Slippery Project – Something Like This (Slipmatt, Dougal & Gammer Remix) (3:36)
03. SMD – SMD#5 (Eufeion Hard Dub Remix) (3:33)
04. Topvibe – Bomb Scared (4:12)
05. Billy 'Daniel' Bunter & Sparky Feat. Fraz – Keep On Trying (4:02)
06. Jenna C – Right In The Night (3:49)
07. Petruccio & Modulate & MC Odyssey – Stairway To Heaven 4:14
08. Andy Dee Feat. Charmain Lovett – Guide My Way (3:47)
09. Danny Coggin Feat. Marie Louise – Feel The Power (3:55)
10. 75 Numbers – See Anothey Day (CLSM Remix) (3:57)
11. Hardcore Hit Squad, The & Kyla – Under Your Spell (3:53)
12. Mr. Dan & Sparks – Body Slam (Billy 'Daniel' Bunter & Sparky Remix) (3:30)
13. Petruccio & Modulate – Dirty Beats (3:19)
14. Sparky – Press Play On Tape (& Play With My Joystick) (3:19)
15. Little Miss Detonate – Sweet Dude 3:45
16. Ian K – Tango Sucka (3:27)
17. Matduke – Hardcore Pressure (3:27)
18. Fretman – Dirtee Skank (3:42)
19. Scott Bounce – This Is The Way (3:38)
20. Chris Ross – Let's Go Disco (4:14)

-

Лог создания рипа CD1

Exact Audio Copy V0.99 prebeta 4 from 23. January 2008
Отчёт EAC об извлечении, выполненном 28. февраля 2013, 0:56
Various / 100% Hardcore (CD1)
Дисковод: Optiarc DVD RW AD-7261S Adapter: 1 ID: 1
Режим чтения : ДостоверностьИспользование точного потока : ДаОтключение кэша аудио : ДаИспользование указателей C2 : Нет
Коррекция смещения при чтении : 48Способность читать области Lead-in и Lead-out : НетЗаполнение пропущенных сэмплов тишиной : ДаУдаление блоков с тишиной в начале и конце : НетПри вычислениях CRC использовались нулевые сэмплы : ДаИнтерфейс : Встроенный Win32-интерфейс для Win NT/2000
Выходной формат : Внутренние WAV-операцииФормат сэмплов : 44.100 Гц; 16 бит; стерео
TOC извлечённого CD
Трек | Старт | Длительность | Начальный сектор | Конечный сектор --------------------------------------------------------------------- 1 | 0:00.00 | 3:59.74 | 0 | 17998 2 | 3:59.74 | 3:14.00 | 17999 | 32548 3 | 7:13.74 | 3:42.00 | 32549 | 49198 4 | 10:55.74 | 3:02.19 | 49199 | 62867 5 | 13:58.18 | 3:36.56 | 62868 | 79123 6 | 17:34.74 | 3:26.00 | 79124 | 94573 7 | 21:00.74 | 3:27.39 | 94574 | 110137 8 | 24:28.38 | 3:52.38 | 110138 | 127575 9 | 28:21.01 | 3:56.30 | 127576 | 145305 10 | 32:17.31 | 4:05.00 | 145306 | 163680 11 | 36:22.31 | 4:04.00 | 163681 | 181980 12 | 40:26.31 | 3:20.27 | 181981 | 197007 13 | 43:46.58 | 4:00.00 | 197008 | 215007 14 | 47:46.58 | 3:52.15 | 215008 | 232422 15 | 51:38.73 | 3:32.00 | 232423 | 248322 16 | 55:10.73 | 3:37.00 | 248323 | 264597 17 | 58:47.73 | 3:55.36 | 264598 | 282258 18 | 62:43.34 | 3:32.00 | 282259 | 298158 19 | 66:15.34 | 3:41.00 | 298159 | 314733 20 | 69:56.34 | 3:33.71 | 314734 | 330779
Характеристики диапазона извлечения и сообщения об ошибках
Выбранный диапазон
Имя файла C:\Users\Meijin\Desktop\Новая папка (4)\Various - 100% Hardcore (CD1).wav
Пиковый уровень 100.0 % Качество диапазона 100.0 % CRC теста 7164654C CRC копии 7164654C Копирование... OK
Ошибок не произошло
AccurateRip: сводка
Трек 1 нет в базе данныхТрек 2 нет в базе данныхТрек 3 нет в базе данныхТрек 4 нет в базе данныхТрек 5 нет в базе данныхТрек 6 нет в базе данныхТрек 7 нет в базе данныхТрек 8 нет в базе данныхТрек 9 нет в базе данныхТрек 10 нет в базе данныхТрек 11 нет в базе данныхТрек 12 нет в базе данныхТрек 13 нет в базе данныхТрек 14 нет в базе данныхТрек 15 нет в базе данныхТрек 16 нет в базе данныхТрек 17 нет в базе данныхТрек 18 нет в базе данныхТрек 19 нет в базе данныхТрек 20 нет в базе данных
Ни одного трека нет в базе AccurateRip
Конец отчёта

Лог создания рипа CD2

Exact Audio Copy V0.99 prebeta 4 from 23. January 2008
Отчёт EAC об извлечении, выполненном 28. февраля 2013, 6:52
Various / 100% Hardcore (CD2)
Дисковод: Optiarc DVD RW AD-7261S Adapter: 1 ID: 1
Режим чтения : ДостоверностьИспользование точного потока : ДаОтключение кэша аудио : ДаИспользование указателей C2 : Нет
Коррекция смещения при чтении : 48Способность читать области Lead-in и Lead-out : НетЗаполнение пропущенных сэмплов тишиной : ДаУдаление блоков с тишиной в начале и конце : НетПри вычислениях CRC использовались нулевые сэмплы : ДаИнтерфейс : Встроенный Win32-интерфейс для Win NT/2000
Выходной формат : Внутренние WAV-операцииФормат сэмплов : 44.100 Гц; 16 бит; стерео
TOC извлечённого CD
Трек | Старт | Длительность | Начальный сектор | Конечный сектор --------------------------------------------------------------------- 1 | 0:00.00 | 3:28.71 | 0 | 15670 2 | 3:28.71 | 4:18.01 | 15671 | 35021 3 | 7:46.72 | 3:39.37 | 35022 | 51483 4 | 11:26.34 | 3:49.38 | 51484 | 68696 5 | 15:15.72 | 4:05.68 | 68697 | 87139 6 | 19:21.65 | 3:54.07 | 87140 | 104696 7 | 23:15.72 | 3:15.37 | 104697 | 119358 8 | 26:31.34 | 3:25.00 | 119359 | 134733 9 | 29:56.34 | 3:26.40 | 134734 | 150223 10 | 33:22.74 | 3:12.72 | 150224 | 164695 11 | 36:35.71 | 3:53.01 | 164696 | 182171 12 | 40:28.72 | 4:02.39 | 182172 | 200360 13 | 44:31.36 | 3:31.73 | 200361 | 216258 14 | 48:03.34 | 3:49.38 | 216259 | 233471 15 | 51:52.72 | 4:06.00 | 233472 | 251921 16 | 55:58.72 | 3:42.00 | 251922 | 268571 17 | 59:40.72 | 4:04.37 | 268572 | 286908 18 | 63:45.34 | 4:02.37 | 286909 | 305095 19 | 67:47.71 | 3:58.38 | 305096 | 322983 20 | 71:46.34 | 4:06.66 | 322984 | 341499
Характеристики диапазона извлечения и сообщения об ошибках
Выбранный диапазон
Имя файла C:\Users\Meijin\Desktop\Новая папка (4)\Various - 100% Hardcore (CD2).wav
Пиковый уровень 100.0 % Качество диапазона 100.0 % CRC теста 95709C0D CRC копии 95709C0D Копирование... OK
Ошибок не произошло
AccurateRip: сводка
Трек 1 нет в базе данныхТрек 2 нет в базе данныхТрек 3 нет в базе данныхТрек 4 нет в базе данныхТрек 5 нет в базе данныхТрек 6 нет в базе данныхТрек 7 нет в базе данныхТрек 8 нет в базе данныхТрек 9 нет в базе данныхТрек 10 нет в базе данныхТрек 11 нет в базе данныхТрек 12 нет в базе данныхТрек 13 нет в базе данныхТрек 14 нет в базе данныхТрек 15 нет в базе данныхТрек 16 нет в базе данныхТрек 17 нет в базе данныхТрек 18 нет в базе данныхТрек 19 нет в базе данныхТрек 20 нет в базе данных
Ни одного трека нет в базе AccurateRip
Конец отчёта

Лог создания рипа CD3

Exact Audio Copy V0.99 prebeta 4 from 23. January 2008
Отчёт EAC об извлечении, выполненном 28. февраля 2013, 7:30
Various / 100% Hardcore (CD3)
Дисковод: Optiarc DVD RW AD-7261S Adapter: 1 ID: 1
Режим чтения : ДостоверностьИспользование точного потока : ДаОтключение кэша аудио : ДаИспользование указателей C2 : Нет
Коррекция смещения при чтении : 48Способность читать области Lead-in и Lead-out : НетЗаполнение пропущенных сэмплов тишиной : ДаУдаление блоков с тишиной в начале и конце : НетПри вычислениях CRC использовались нулевые сэмплы : ДаИнтерфейс : Встроенный Win32-интерфейс для Win NT/2000
Выходной формат : Внутренние WAV-операцииФормат сэмплов : 44.100 Гц; 16 бит; стерео
TOC извлечённого CD
Трек | Старт | Длительность | Начальный сектор | Конечный сектор --------------------------------------------------------------------- 1 | 0:00.00 | 3:41.52 | 0 | 16626 2 | 3:41.52 | 3:35.57 | 16627 | 32808 3 | 7:17.34 | 3:32.34 | 32809 | 48742 4 | 10:49.68 | 4:11.40 | 48743 | 67607 5 | 15:01.33 | 4:01.37 | 67608 | 85719 6 | 19:02.70 | 3:48.53 | 85720 | 102872 7 | 22:51.48 | 4:14.22 | 102873 | 121944 8 | 27:05.70 | 3:46.43 | 121945 | 138937 9 | 30:52.38 | 3:54.39 | 138938 | 156526 10 | 34:47.02 | 3:57.10 | 156527 | 174311 11 | 38:44.12 | 3:52.57 | 174312 | 191768 12 | 42:36.69 | 3:30.01 | 191769 | 207519 13 | 46:06.70 | 3:19.18 | 207520 | 222462 14 | 49:26.13 | 3:18.58 | 222463 | 237370 15 | 52:44.71 | 3:44.74 | 237371 | 254244 16 | 56:29.70 | 3:15.04 | 254245 | 268873 17 | 59:44.74 | 3:26.34 | 268874 | 284357 18 | 63:11.33 | 3:41.50 | 284358 | 300982 19 | 66:53.08 | 3:37.63 | 300983 | 317320 20 | 70:30.71 | 4:13.37 | 317321 | 336332
Характеристики диапазона извлечения и сообщения об ошибках
Выбранный диапазон
Имя файла C:\Users\Meijin\Desktop\Новая папка (4)\Various - 100% Hardcore (CD3).wav
Пиковый уровень 100.0 % Качество диапазона 100.0 % CRC теста 5DA397A7 CRC копии 5DA397A7 Копирование... OK
Ошибок не произошло
AccurateRip: сводка
Трек 1 нет в базе данныхТрек 2 нет в базе данныхТрек 3 нет в базе данныхТрек 4 нет в базе данныхТрек 5 нет в базе данныхТрек 6 нет в базе данныхТрек 7 нет в базе данныхТрек 8 нет в базе данныхТрек 9 нет в базе данныхТрек 10 нет в базе данныхТрек 11 нет в базе данныхТрек 12 нет в базе данныхТрек 13 нет в базе данныхТрек 14 нет в базе данныхТрек 15 нет в базе данныхТрек 16 нет в базе данныхТрек 17 нет в базе данныхТрек 18 нет в базе данныхТрек 19 нет в базе данныхТрек 20 нет в базе данных
Ни одного трека нет в базе AccurateRip
Конец отчёта

_________________
Показать сообщения:    

Текущее время: Сегодня 20:56

Часовой пояс: GMT



Вы не можете начинать темы
Вы не можете отвечать на сообщения
Вы не можете редактировать свои сообщения
Вы не можете удалять свои сообщения
Вы не можете голосовать в опросах
Вы не можете прикреплять файлы к сообщениям
Вы не можете скачивать файлы