Ивановский Торрент трекер
Яндекс.Погода
 

[Цитировать]
HUNTER

Scott Brown ‎– Hardwired III
Жанр: UK Hardcore, Hardcore
Страна-производитель диска: UK
Год издания: 2006
Издатель (лейбл): Evolution Records
Номер по каталогу: EVCD14
Аудиокодек: FLAC (*.flac)
Тип рипа: image+.cue
Битрейт аудио: lossless
Продолжительность: 2:30:36
Источник (релизер): Диск из личной коллекции
Наличие сканов в содержимом раздачи: да
Треклист:
CD1: Mixed By Scott Brown (1:16:18)
01. Plus System – Commence (Sy & Unknown Remix) (4:43)
02. Plus System – Make You Freak (Remix) (4:54)
03. Scott Brown – Memories (UFO Remix) (3:27)
04. Scott Brown – Sanctified (4:21)
05. Scott Brown – Viroid (Nu Foundation Remix) (4:21)
06. Scott Brown – Heaven In Your Eyes (4:21)
07. Scott Brown – How Many Sukkas? (4:00)
08. Scott Brown – Wakey Wakey (4:00)
09. Plus System – This Is How We Do It (Gammer's Muffin Mix) (5:49)
10. Scott Brown – Blue Room (Kev Willow Remix) (4:54)
11. Scott Brown – Goodbye My Friend (5:05)
12. Scott Brown – Lost Generation (Nu Foundation Remix) (4:21)
13. Scott Brown – Casualty (5:27)
14. Scott Brown – Invite The Violence (4:00)
15. Scott Brown – Life As We Know It (4:43)
16. Scott Brown – Go Berserk (2:00)
17. Interstate – This Is My Bass (Remix) (2:10)
18. Scott Brown – Sonic Boomstick (3:32)
CD2: Unmixed DJ Friendly (1:14:17)
01. Scott Brown – Gang Bang Society (Remix) (6:01)
02. Scott Brown – Detonated (2005 Remix) (5:55)
03. Scott Brown – Goodbye My Friend (Intro Mix) (4:33)
04. Plus System – Make You Freak (Remix) (5:31)
05. Interstate – This Is My Bass (Remix) (4:35)
06. Scott Brown – Sanctified (5:19)
07. Scott Brown – How Many Sukkas? (Plus System Remix) (5:54)
08. Scott Brown – Do It Like We Do (Remix) (5:20)
09. Scott Brown – Life As We Know It (5:40)
10. Scott Brown – We Don't Stop (5:20)
11. Scott Brown – I'll Get You (6:04)
12. Scott Brown – Boomstick (Original) (14:01)

-

Лог создания рипа CD1

Exact Audio Copy V0.99 prebeta 4 from 23. January 2008
Отчёт EAC об извлечении, выполненном 21. марта 2013, 7:22
Various / Scott Brown - Hardwired III (CD1) - Mixed By Scott Brown
Дисковод: Optiarc DVD RW AD-7261S Adapter: 1 ID: 1
Режим чтения : ДостоверностьИспользование точного потока : ДаОтключение кэша аудио : ДаИспользование указателей C2 : Нет
Коррекция смещения при чтении : 48Способность читать области Lead-in и Lead-out : НетЗаполнение пропущенных сэмплов тишиной : ДаУдаление блоков с тишиной в начале и конце : НетПри вычислениях CRC использовались нулевые сэмплы : ДаИнтерфейс : Встроенный Win32-интерфейс для Win NT/2000
Выходной формат : Внутренние WAV-операцииФормат сэмплов : 44.100 Гц; 16 бит; стерео
TOC извлечённого CD
Трек | Старт | Длительность | Начальный сектор | Конечный сектор --------------------------------------------------------------------- 1 | 0:00.00 | 4:43.63 | 0 | 21287 2 | 4:43.63 | 4:54.57 | 21288 | 43394 3 | 9:38.45 | 3:27.32 | 43395 | 58951 4 | 13:06.02 | 4:21.69 | 58952 | 78595 5 | 17:27.71 | 4:21.70 | 78596 | 98240 6 | 21:49.66 | 4:21.69 | 98241 | 117884 7 | 26:11.60 | 4:00.06 | 117885 | 135890 8 | 30:11.66 | 4:00.04 | 135891 | 153894 9 | 34:11.70 | 5:49.11 | 153895 | 180080 10 | 40:01.06 | 4:54.50 | 180081 | 202180 11 | 44:55.56 | 5:05.39 | 202181 | 225094 12 | 50:01.20 | 4:21.67 | 225095 | 244736 13 | 54:23.12 | 5:27.27 | 244737 | 269288 14 | 59:50.39 | 4:00.06 | 269289 | 287294 15 | 63:50.45 | 4:43.55 | 287295 | 308574 16 | 68:34.25 | 2:00.04 | 308575 | 317578 17 | 70:34.29 | 2:10.73 | 317579 | 327401 18 | 72:45.27 | 3:32.67 | 327402 | 343368
Характеристики диапазона извлечения и сообщения об ошибках
Выбранный диапазон
Имя файла C:\Users\Meijin\Desktop\Новая папка (4)\Various - Scott Brown - Hardwired III (CD1) - Mixed By Scott Brown.wav
Пиковый уровень 96.8 % Качество диапазона 100.0 % CRC теста 757DEA94 CRC копии 757DEA94 Копирование... OK
Ошибок не произошло
AccurateRip: сводка
Трек 1 точное извлечение (доверие 1) [9632FFE2]Трек 2 точное извлечение (доверие 1) [7EF5FFDB]Трек 3 точное извлечение (доверие 1) [20DA8CCB]Трек 4 точное извлечение (доверие 1) [9E478821]Трек 5 точное извлечение (доверие 1) [C0A167DF]Трек 6 точное извлечение (доверие 1) [DAA96F81]Трек 7 точное извлечение (доверие 1) [A1DAA81B]Трек 8 точное извлечение (доверие 1) [A8E6D60A]Трек 9 точное извлечение (доверие 1) [521B02F5]Трек 10 точное извлечение (доверие 1) [ECF9E2D6]Трек 11 точное извлечение (доверие 1) [1B0184C7]Трек 12 точное извлечение (доверие 1) [97F1D618]Трек 13 точное извлечение (доверие 1) [671C6249]Трек 14 точное извлечение (доверие 1) [97239E22]Трек 15 точное извлечение (доверие 1) [A45C6C33]Трек 16 точное извлечение (доверие 1) [37E8B783]Трек 17 точное извлечение (доверие 1) [84407571]Трек 18 точное извлечение (доверие 1) [33517A16]
Все треки извлечены точно
Конец отчёта

Лог создания рипа CD2

Exact Audio Copy V0.99 prebeta 4 from 23. January 2008
Отчёт EAC об извлечении, выполненном 21. марта 2013, 20:47
Various / Scott Brown - Hardwired III (CD2) - Unmixed DJ Friendly
Дисковод: Optiarc DVD RW AD-7261S Adapter: 1 ID: 1
Режим чтения : ДостоверностьИспользование точного потока : ДаОтключение кэша аудио : ДаИспользование указателей C2 : Нет
Коррекция смещения при чтении : 48Способность читать области Lead-in и Lead-out : НетЗаполнение пропущенных сэмплов тишиной : ДаУдаление блоков с тишиной в начале и конце : НетПри вычислениях CRC использовались нулевые сэмплы : ДаИнтерфейс : Встроенный Win32-интерфейс для Win NT/2000
Выходной формат : Внутренние WAV-операцииФормат сэмплов : 44.100 Гц; 16 бит; стерео
TOC извлечённого CD
Трек | Старт | Длительность | Начальный сектор | Конечный сектор --------------------------------------------------------------------- 1 | 0:00.00 | 6:01.31 | 0 | 27105 2 | 6:01.31 | 5:55.16 | 27106 | 53746 3 | 11:56.47 | 4:33.43 | 53747 | 74264 4 | 16:30.15 | 5:31.14 | 74265 | 99103 5 | 22:01.29 | 4:35.12 | 99104 | 119740 6 | 26:36.41 | 5:19.59 | 119741 | 143724 7 | 31:56.25 | 5:54.00 | 143725 | 170274 8 | 37:50.25 | 5:20.14 | 170275 | 194288 9 | 43:10.39 | 5:40.04 | 194289 | 219792 10 | 48:50.43 | 5:20.10 | 219793 | 243802 11 | 54:10.53 | 6:04.68 | 243803 | 271170 12 | 60:15.46 | 14:01.56 | 271171 | 334301
Характеристики диапазона извлечения и сообщения об ошибках
Выбранный диапазон
Имя файла C:\Users\Meijin\Desktop\Новая папка (4)\Various - Scott Brown - Hardwired III (CD2) - Unmixed DJ Friendly.wav
Пиковый уровень 100.0 % Качество диапазона 100.0 % CRC теста 11470475 CRC копии 11470475 Копирование... OK
Ошибок не произошло
AccurateRip: сводка
Трек 1 нет в базе данныхТрек 2 нет в базе данныхТрек 3 нет в базе данныхТрек 4 нет в базе данныхТрек 5 нет в базе данныхТрек 6 нет в базе данныхТрек 7 нет в базе данныхТрек 8 нет в базе данныхТрек 9 нет в базе данныхТрек 10 нет в базе данныхТрек 11 нет в базе данныхТрек 12 нет в базе данных
Ни одного трека нет в базе AccurateRip
Конец отчёта
Показать сообщения:    

Текущее время: 21-Окт 07:44

Часовой пояс: UTC - 1


Вы не можете начинать темы
Вы не можете отвечать на сообщения
Вы не можете редактировать свои сообщения
Вы не можете удалять свои сообщения
Вы не можете голосовать в опросах
Вы не можете прикреплять файлы к сообщениям
Вы не можете скачивать файлы

!ВНИМАНИЕ!
Сайт не предоставляет электронные версии произведений, а занимается лишь коллекционированием и каталогизацией ссылок, присылаемых и публикуемых на форуме нашими читателями. Если вы являетесь правообладателем какого-либо представленного материала и не желаете, чтобы ссылка на него находилась в нашем каталоге, свяжитесь с нами, и мы незамедлительно удалим ее. Файлы для обмена на трекере предоставлены пользователями сайта, и администрация не несет ответственности за их содержание. Просьба не заливать файлы, защищенные авторскими правами, а также файлы нелегального содержания!