Важное объявление!
У Нас Все раздачи мультитрекерные, при нуле пиров в релизах, можете смело вставать на закачку!
 
Автор Сообщение

HUNTER

Стаж:
4 года 7 месяцев
Сообщений:
61521

Репутация: 101

[+] [-]
Вне форума [Профиль] [ЛС]

Various Artists - The Ultimate Happy Hardcore Album
Жанр: UK Hardcore, Happy Hardcore
Страна-производитель диска: UK
Год издания: 2003
Издатель (лейбл): Decadance Recordings
Номер по каталогу: DECSIX010
Аудиокодек: FLAC (*.flac)
Тип рипа: image+.cue
Битрейт аудио: lossless
Продолжительность: 5:08:38
Источник (релизер): Диск из личной коллекции
Наличие сканов в содержимом раздачи: да
Треклист:
CD1: Dougal`s Mix One (0:50:47)
01. Scott Brown – Fly With You (6:02)
02. Divine Inspiration – The Way (Breeze & Styles Remix) (3:12)
03. Plus System – Dehumanize (4:42)
04. Stargazer – Ultimate High (Breeze & Styles Remix) (4:56)
05. Darren Styles – Back 2 The Old Skool (3:57)
06. Brisk & Ham – Rock Da Party (4:50)
07. Oli G & DJ Fracus – Feel The Light (Breeze & Styles Remix) (4:42)
08. Hixxy & Darren Styles – Rushins (6:35)
09. GEOS – Everyday (4:55)
10. G Spencer And Gammer – Space Exploration (6:03)
CD2: Dougal`s Mix Two (0:53:14)
01. Styles & Breeze – Electric (5:01)
02. Interstate – Hardcore Hustler (5:30)
03. Billy Daniel Bunter & Jon Doe – Round & Round (Breeze & Styles Remix) (3:45)
04. Scott Brown – I'm In Heaven (4:30)
05. Seduction vs. Sy & Unknown – Vigilante Hardcore (4:22)
06. Styles & Breeze – Heartbeatz (5:40)
07. DJ Ham – Remembering The Time (5:50)
08. Deejay Bee & Overflow – Sunrise (Dougal & Gammer Remix) (5:04)
09. Brisk & Kevin Energy – Unlock Ya Brain (6:32)
10. DJ Weaver – Come Into My Dreams (Hixxy Remix) (6:54)
CD3: Dougal`s Essential Platinum Mix (0:55:43)
01. Gammer And G Spencer – Steam (6:15)
02. Dougal & Gammer – Addictions (6:12)
03. Dowster, Dougal & Gammer – Can You Hear Me (5:12)
04. Dr. Who – Love Of My Life (Dougal & Gammer Remix) (5:22)
05. Dougal & Gammer – Higher Than Heaven (5:22)
06. Darkside – The 6th Gate (Dougal & Gammer Remix) (5:58)
07. Dougal & Gammer – Ordinary People (5:20)
08. Dougal & Gammer – Anybody (4:57)
09. Dougal & Gammer – Pump Up The Noise (6:18)
10. Dougal & Gammer – Paradise (4:42)
CD4: Vibes` Mix One (0:47:18)
01. Prime Attack – Box-A-Trix (4:32)
02. Triple J – Wonderful World (5:06)
03. DJ Unity – Freedom (5:23)
04. Future Primitive – Feel It (5:19)
05. DJ Storm – Beating Of My Heart (5:08)
06. Fabulous Faber – Better Day (4:58)
07. DJ Kaos – Go Mental 2 (3:50)
08. DJ Vibes – Es-sex (4:13)
09. Basement Productions – Aurora (4:06)
10. DJ SS – Clowd Pleasures (4:38)
CD5: Vibes` Mix Two (0:49:45)
01. Dougal & Mickey Skeedale – Really Love You (5:23)
02. Vibes & Wishdokta – Ardcore Eavyweight (4:40)
03. V Jam – Doves Or Dollars (3:54)
04. Dougal & DJ Vibes – Last Chance (3:53)
05. DJ Spinback & Mallards – Feelings Of Desire (4:15)
06. DJ Slam – Till We Meet Again (5:10)
07. DJ Rise – R Yeah (3:56)
08. Ravers Choice – Techno Wonderland (6:16)
09. DJ Spinback & DNA – Give Yourself To Me (4:17)
10. James Venus – World Of Fantasy (7:56)
CD6: Vibes` Mix Three (0:51:51)
01. DJ Kaos – Forever Autumn (8:08)
02. Triple J – Eternity (4:23)
03. DJ Storm & Frisky – We're In Heaven (6:27)
04. DJ Paul Elstak – Luv U More (5:17)
05. DJ Vibes – Fantastic 4:40
06. DJ Spinback – Babylon Time (4:48)
07. Secret Squirrel – Energizer (3:58)
08. Ravers Choice – Always (3:59)
09. SMD – SMD 3AA (3:37)
10. James Venus – Wonderful Feel (6:30)

-

Лог создания рипа CD1

Exact Audio Copy V0.99 prebeta 4 from 23. January 2008
Отчёт EAC об извлечении, выполненном 6. марта 2013, 21:37
Various / The Ultimate Happy Hardcore Album (CD1) - Dougal's Mix One
Дисковод: Optiarc DVD RW AD-7261S Adapter: 1 ID: 1
Режим чтения : ДостоверностьИспользование точного потока : ДаОтключение кэша аудио : ДаИспользование указателей C2 : Нет
Коррекция смещения при чтении : 48Способность читать области Lead-in и Lead-out : НетЗаполнение пропущенных сэмплов тишиной : ДаУдаление блоков с тишиной в начале и конце : НетПри вычислениях CRC использовались нулевые сэмплы : ДаИнтерфейс : Встроенный Win32-интерфейс для Win NT/2000
Выходной формат : Внутренние WAV-операцииФормат сэмплов : 44.100 Гц; 16 бит; стерео
TOC извлечённого CD
Трек | Старт | Длительность | Начальный сектор | Конечный сектор --------------------------------------------------------------------- 1 | 0:00.00 | 6:02.33 | 0 | 27182 2 | 6:02.33 | 3:12.00 | 27183 | 41582 3 | 9:14.33 | 4:42.27 | 41583 | 62759 4 | 13:56.60 | 4:56.34 | 62760 | 84993 5 | 18:53.19 | 3:57.12 | 84994 | 102780 6 | 22:50.31 | 5:40.18 | 102781 | 128298 7 | 28:30.49 | 4:42.26 | 128299 | 149474 8 | 33:13.00 | 6:35.23 | 149475 | 179122 9 | 39:48.23 | 4:55.04 | 179123 | 201251 10 | 44:43.27 | 6:03.54 | 201252 | 228530
Характеристики диапазона извлечения и сообщения об ошибках
Выбранный диапазон
Имя файла C:\Users\Meijin\Desktop\Новая папка (4)\Various - The Ultimate Happy Hardcore Album (CD1) - Dougal's Mix One.wav
Пиковый уровень 99.8 % Качество диапазона 100.0 % CRC теста EE556387 CRC копии EE556387 Копирование... OK
Ошибок не произошло
AccurateRip: сводка
Трек 1 точное извлечение (доверие 2) [41C2B8E5]Трек 2 точное извлечение (доверие 3) [FEC04BBA]Трек 3 точное извлечение (доверие 3) [9D7DF898]Трек 4 точное извлечение (доверие 2) [0B7E3A01]Трек 5 точное извлечение (доверие 2) [CC474CA8]Трек 6 точное извлечение (доверие 3) [446B16D8]Трек 7 точное извлечение (доверие 2) [45429D27]Трек 8 точное извлечение (доверие 3) [05E1E90C]Трек 9 точное извлечение (доверие 3) [04AA8BE6]Трек 10 точное извлечение (доверие 3) [4AB1B3A9]
Все треки извлечены точно
Конец отчёта

Лог создания рипа CD2

Exact Audio Copy V0.99 prebeta 4 from 23. January 2008
Отчёт EAC об извлечении, выполненном 6. марта 2013, 22:06
Various / The Ultimate Happy Hardcore Album (CD2) - Dougal's Mix Two
Дисковод: Optiarc DVD RW AD-7261S Adapter: 1 ID: 1
Режим чтения : ДостоверностьИспользование точного потока : ДаОтключение кэша аудио : ДаИспользование указателей C2 : Нет
Коррекция смещения при чтении : 48Способность читать области Lead-in и Lead-out : НетЗаполнение пропущенных сэмплов тишиной : ДаУдаление блоков с тишиной в начале и конце : НетПри вычислениях CRC использовались нулевые сэмплы : ДаИнтерфейс : Встроенный Win32-интерфейс для Win NT/2000
Выходной формат : Внутренние WAV-операцииФормат сэмплов : 44.100 Гц; 16 бит; стерео
TOC извлечённого CD
Трек | Старт | Длительность | Начальный сектор | Конечный сектор --------------------------------------------------------------------- 1 | 0:00.00 | 5:01.57 | 0 | 22631 2 | 5:01.57 | 5:30.29 | 22632 | 47410 3 | 10:32.11 | 3:45.66 | 47411 | 64351 4 | 14:18.02 | 4:30.71 | 64352 | 84672 5 | 18:48.73 | 4:22.43 | 84673 | 104365 6 | 23:11.41 | 5:40.18 | 104366 | 129883 7 | 28:51.59 | 5:50.07 | 129884 | 156140 8 | 34:41.66 | 5:04.71 | 156141 | 179011 9 | 39:46.62 | 6:32.35 | 179012 | 208446 10 | 46:19.22 | 6:54.41 | 208447 | 239537
Характеристики диапазона извлечения и сообщения об ошибках
Выбранный диапазон
Имя файла C:\Users\Meijin\Desktop\Новая папка (4)\Various - The Ultimate Happy Hardcore Album (CD2) - Dougal's Mix Two.wav
Пиковый уровень 99.8 % Качество диапазона 99.9 % CRC теста C3408F26 CRC копии C3408F26 Копирование... OK
Ошибок не произошло
AccurateRip: сводка
Трек 1 точное извлечение (доверие 3) [9FFBCBA8]Трек 2 точное извлечение (доверие 3) [26B15F4A]Трек 3 точное извлечение (доверие 3) [EBFD0101]Трек 4 точное извлечение (доверие 3) [A2629E5B]Трек 5 точное извлечение (доверие 3) [328AD9C5]Трек 6 точное извлечение (доверие 3) [857E1E4D]Трек 7 точность не определена (достоверность 2) [1F60E90B], AccurateRip вернул [5A4892DC]Трек 8 точное извлечение (доверие 3) [434D73E2]Трек 9 точное извлечение (доверие 3) [AA10746A]Трек 10 точное извлечение (доверие 2) [F0255286]
9 трек(и) скопированы точно 1 трек(и) не удалось проверить на точность
Некоторые треки не прошли проверку на точность
Конец отчёта

Лог создания рипа CD3

Exact Audio Copy V0.99 prebeta 4 from 23. January 2008
Отчёт EAC об извлечении, выполненном 6. марта 2013, 22:36
Various / The Ultimate Happy Hardcore Album (CD3) - Dougal's Essential Platinum Mix
Дисковод: Optiarc DVD RW AD-7261S Adapter: 1 ID: 1
Режим чтения : ДостоверностьИспользование точного потока : ДаОтключение кэша аудио : ДаИспользование указателей C2 : Нет
Коррекция смещения при чтении : 48Способность читать области Lead-in и Lead-out : НетЗаполнение пропущенных сэмплов тишиной : ДаУдаление блоков с тишиной в начале и конце : НетПри вычислениях CRC использовались нулевые сэмплы : ДаИнтерфейс : Встроенный Win32-интерфейс для Win NT/2000
Выходной формат : Внутренние WAV-операцииФормат сэмплов : 44.100 Гц; 16 бит; стерео
TOC извлечённого CD
Трек | Старт | Длительность | Начальный сектор | Конечный сектор --------------------------------------------------------------------- 1 | 0:00.00 | 6:15.27 | 0 | 28151 2 | 6:15.27 | 6:12.65 | 28152 | 56116 3 | 12:28.17 | 5:12.63 | 56117 | 79579 4 | 17:41.05 | 5:22.64 | 79580 | 103793 5 | 23:03.69 | 5:22.65 | 103794 | 128008 6 | 28:26.59 | 5:58.43 | 128009 | 154901 7 | 34:25.27 | 5:20.00 | 154902 | 178901 8 | 39:45.27 | 4:57.10 | 178902 | 201186 9 | 44:42.37 | 6:18.43 | 201187 | 229579 10 | 51:01.05 | 4:42.12 | 229580 | 250741
Характеристики диапазона извлечения и сообщения об ошибках
Выбранный диапазон
Имя файла C:\Users\Meijin\Desktop\Новая папка (4)\Various - The Ultimate Happy Hardcore Album (CD3) - Dougal's Essential Platinum Mix.wav
Пиковый уровень 99.8 % Качество диапазона 99.9 % CRC теста C8609ABA CRC копии C8609ABA Копирование... OK
Ошибок не произошло
AccurateRip: сводка
Трек 1 точное извлечение (доверие 3) [98779DB8]Трек 2 точное извлечение (доверие 3) [113CCF6E]Трек 3 точное извлечение (доверие 3) [B44A5EE4]Трек 4 точное извлечение (доверие 3) [D8699BF3]Трек 5 точное извлечение (доверие 3) [85B9C1F1]Трек 6 точное извлечение (доверие 3) [FD066827]Трек 7 точное извлечение (доверие 3) [6D4D359F]Трек 8 точное извлечение (доверие 3) [DA663DF8]Трек 9 точное извлечение (доверие 3) [E7D1BFFC]Трек 10 точное извлечение (доверие 3) [B7FF32E2]
Все треки извлечены точно
Конец отчёта

Лог создания рипа CD4

Exact Audio Copy V0.99 prebeta 4 from 23. January 2008
Отчёт EAC об извлечении, выполненном 6. марта 2013, 23:01
Various / The Ultimate Happy Hardcore Album (CD4) - Vibes' Mix One
Дисковод: Optiarc DVD RW AD-7261S Adapter: 1 ID: 1
Режим чтения : ДостоверностьИспользование точного потока : ДаОтключение кэша аудио : ДаИспользование указателей C2 : Нет
Коррекция смещения при чтении : 48Способность читать области Lead-in и Lead-out : НетЗаполнение пропущенных сэмплов тишиной : ДаУдаление блоков с тишиной в начале и конце : НетПри вычислениях CRC использовались нулевые сэмплы : ДаИнтерфейс : Встроенный Win32-интерфейс для Win NT/2000
Выходной формат : Внутренние WAV-операцииФормат сэмплов : 44.100 Гц; 16 бит; стерео
TOC извлечённого CD
Трек | Старт | Длительность | Начальный сектор | Конечный сектор --------------------------------------------------------------------- 1 | 0:00.00 | 4:32.44 | 0 | 20443 2 | 4:32.44 | 5:06.26 | 20444 | 43419 3 | 9:38.70 | 5:23.23 | 43420 | 67667 4 | 15:02.18 | 5:19.62 | 67668 | 91654 5 | 20:22.05 | 5:08.39 | 91655 | 114793 6 | 25:30.44 | 4:58.44 | 114794 | 137187 7 | 30:29.13 | 3:50.03 | 137188 | 154440 8 | 34:19.16 | 4:13.55 | 154441 | 173470 9 | 38:32.71 | 4:06.44 | 173471 | 191964 10 | 42:39.40 | 4:38.28 | 191965 | 212842
Характеристики диапазона извлечения и сообщения об ошибках
Выбранный диапазон
Имя файла C:\Users\Meijin\Desktop\Новая папка (4)\Various - The Ultimate Happy Hardcore Album (CD4) - Vibes' Mix One.wav
Пиковый уровень 99.8 % Качество диапазона 100.0 % CRC теста 64260D74 CRC копии 64260D74 Копирование... OK
Ошибок не произошло
AccurateRip: сводка
Трек 1 точное извлечение (доверие 3) [E7E5983C]Трек 2 точное извлечение (доверие 3) [71E42ECA]Трек 3 точное извлечение (доверие 3) [0CFEF577]Трек 4 точное извлечение (доверие 3) [AEA8ABF6]Трек 5 точное извлечение (доверие 3) [BEA7A925]Трек 6 точное извлечение (доверие 3) [186ECD6C]Трек 7 точное извлечение (доверие 3) [BC704E30]Трек 8 точное извлечение (доверие 3) [2AADD918]Трек 9 точное извлечение (доверие 3) [5BE4962D]Трек 10 точное извлечение (доверие 3) [80A483D1]
Все треки извлечены точно
Конец отчёта

Лог создания рипа CD5

Exact Audio Copy V0.99 prebeta 4 from 23. January 2008
Отчёт EAC об извлечении, выполненном 6. марта 2013, 23:29
Various / The Ultimate Happy Hardcore Album (CD5) - Vibes' Mix Two
Дисковод: Optiarc DVD RW AD-7261S Adapter: 1 ID: 1
Режим чтения : ДостоверностьИспользование точного потока : ДаОтключение кэша аудио : ДаИспользование указателей C2 : Нет
Коррекция смещения при чтении : 48Способность читать области Lead-in и Lead-out : НетЗаполнение пропущенных сэмплов тишиной : ДаУдаление блоков с тишиной в начале и конце : НетПри вычислениях CRC использовались нулевые сэмплы : ДаИнтерфейс : Встроенный Win32-интерфейс для Win NT/2000
Выходной формат : Внутренние WAV-операцииФормат сэмплов : 44.100 Гц; 16 бит; стерео
TOC извлечённого CD
Трек | Старт | Длительность | Начальный сектор | Конечный сектор --------------------------------------------------------------------- 1 | 0:00.00 | 5:23.13 | 0 | 24237 2 | 5:23.13 | 4:40.27 | 24238 | 45264 3 | 10:03.40 | 3:54.29 | 45265 | 62843 4 | 13:57.69 | 3:53.53 | 62844 | 80371 5 | 17:51.47 | 4:15.11 | 80372 | 99507 6 | 22:06.58 | 5:10.53 | 99508 | 122810 7 | 27:17.36 | 3:56.13 | 122811 | 140523 8 | 31:13.49 | 6:16.29 | 140524 | 168752 9 | 37:30.03 | 4:17.70 | 168753 | 188097 10 | 41:47.73 | 7:56.65 | 188098 | 223862
Характеристики диапазона извлечения и сообщения об ошибках
Выбранный диапазон
Имя файла C:\Users\Meijin\Desktop\Новая папка (4)\Various - The Ultimate Happy Hardcore Album (CD5) - Vibes' Mix Two.wav
Пиковый уровень 99.8 % Качество диапазона 100.0 % CRC теста B49F9308 CRC копии B49F9308 Копирование... OK
Ошибок не произошло
AccurateRip: сводка
Трек 1 точное извлечение (доверие 3) [7F9E4625]Трек 2 точное извлечение (доверие 3) [0EF2D9E6]Трек 3 точное извлечение (доверие 3) [6CF285D2]Трек 4 точное извлечение (доверие 3) [E62835EB]Трек 5 точное извлечение (доверие 3) [072ABF94]Трек 6 точное извлечение (доверие 3) [2568E3BF]Трек 7 точное извлечение (доверие 3) [9F2C84B6]Трек 8 точное извлечение (доверие 3) [6C4AD74C]Трек 9 точное извлечение (доверие 3) [687CC73A]Трек 10 точное извлечение (доверие 3) [6B222BEA]
Все треки извлечены точно
Конец отчёта

Лог создания рипа CD6

Exact Audio Copy V0.99 prebeta 4 from 23. January 2008
Отчёт EAC об извлечении, выполненном 6. марта 2013, 23:56
Various / The Ultimate Happy Hardcore Album (CD6) - Vibes' Mix Three
Дисковод: Optiarc DVD RW AD-7261S Adapter: 1 ID: 1
Режим чтения : ДостоверностьИспользование точного потока : ДаОтключение кэша аудио : ДаИспользование указателей C2 : Нет
Коррекция смещения при чтении : 48Способность читать области Lead-in и Lead-out : НетЗаполнение пропущенных сэмплов тишиной : ДаУдаление блоков с тишиной в начале и конце : НетПри вычислениях CRC использовались нулевые сэмплы : ДаИнтерфейс : Встроенный Win32-интерфейс для Win NT/2000
Выходной формат : Внутренние WAV-операцииФормат сэмплов : 44.100 Гц; 16 бит; стерео
TOC извлечённого CD
Трек | Старт | Длительность | Начальный сектор | Конечный сектор --------------------------------------------------------------------- 1 | 0:00.00 | 8:08.11 | 0 | 36610 2 | 8:08.11 | 4:23.18 | 36611 | 56353 3 | 12:31.29 | 6:27.37 | 56354 | 85415 4 | 18:58.66 | 5:17.64 | 85416 | 109254 5 | 24:16.55 | 4:40.63 | 109255 | 130317 6 | 28:57.43 | 4:48.00 | 130318 | 151917 7 | 33:45.43 | 3:58.39 | 151918 | 169806 8 | 37:44.07 | 3:59.38 | 169807 | 187769 9 | 41:43.45 | 3:37.14 | 187770 | 204058 10 | 45:20.59 | 6:30.42 | 204059 | 233350
Характеристики диапазона извлечения и сообщения об ошибках
Выбранный диапазон
Имя файла C:\Users\Meijin\Desktop\Новая папка (4)\Various - The Ultimate Happy Hardcore Album (CD6) - Vibes' Mix Three.wav
Пиковый уровень 99.8 % Качество диапазона 100.0 % CRC теста BFAFC444 CRC копии BFAFC444 Копирование... OK
Ошибок не произошло
AccurateRip: сводка
Трек 1 точное извлечение (доверие 3) [0629C7F7]Трек 2 точное извлечение (доверие 3) [0287C48A]Трек 3 точное извлечение (доверие 3) [D1CD2799]Трек 4 точное извлечение (доверие 3) [6B396A37]Трек 5 точное извлечение (доверие 3) [F2EC0670]Трек 6 точное извлечение (доверие 3) [D13D3E4E]Трек 7 точное извлечение (доверие 3) [EE02496C]Трек 8 точное извлечение (доверие 3) [4D8C098B]Трек 9 точное извлечение (доверие 3) [D09935B8]Трек 10 точное извлечение (доверие 3) [5F9EA556]
Все треки извлечены точно
Конец отчёта

_________________
Показать сообщения:    

Текущее время: Сегодня 18:37

Часовой пояс: GMT



Вы не можете начинать темы
Вы не можете отвечать на сообщения
Вы не можете редактировать свои сообщения
Вы не можете удалять свои сообщения
Вы не можете голосовать в опросах
Вы не можете прикреплять файлы к сообщениям
Вы не можете скачивать файлы
Наши партнеры: интернет магазин Ивановского трикотажа textilla.ru