Ивановский Торрент трекер
Яндекс.Погода
 

[Цитировать]
HUNTER

Various Artists - Original Hardcore Selection
Жанр: UK Hardcore, Happy Hardcore
Страна-производитель диска: UK
Год издания: 2007
Издатель (лейбл): Original Selection Records
Номер по каталогу: OSEL 023
Аудиокодек: FLAC (*.flac)
Тип рипа: image+.cue
Битрейт аудио: lossless
Продолжительность: 2:26:14
Источник (релизер): Диск из личной коллекции
Наличие сканов в содержимом раздачи: да
Треклист:
CD1: NEW (1:14:23)
01. Stabilized – Learn 2 Dance (Ham Mix)
02. Force & Jack Speed Featuring Lisa Abbott – Welcome (To The Sunshine) (Original Mix)
03. Dougal & Gammer – Stop The Clock
04. Statik – I Got A Feelin (Breeze Mix)
05. Storm & Euphony – Pure Perfection (Ultravibes Mix)
06. Force & Jack Speed – Break Of Dawn (Original Mix)
07. Jamie Ritmen – Amnesia (Original Mix)
08. Ultravibes – Fuck-You!
09. Sy & Unknown – Product Of The Devil
10. Acolyte, The – Innocence
11. Weaver & Antix – Bitter Tears
12. Dancelordz – Together
CD2: OLD (1:11:51)
01. A Sense Of Summer – On Top (DJ Hixxy Remix 1)
02. Billy Daniel Bunter – Ride Like The Wind
03. Dougal & Eruption – I'm Gonna Get Ya
04. Vampire, The – Choose One
05. DJ Demo – Your Mine (Slipmatt Remix)
06. Eruption – Surrender
07. Triple J – Follow The Sun
08. Sy & Demo – Devotion
09. Ham Featuring Beck – Here I Am
10. Northern Lights – Love Of My Life (Brisk & Ham Remix)
11. Brisk & Trixxy – Eye Opener
12. Frantic – Braveheart

-

Лог создания рипа CD1

Exact Audio Copy V0.99 prebeta 4 from 23. January 2008
Отчёт EAC об извлечении, выполненном 6. марта 2013, 19:57
Various / Original Hardcore Selection (CD1)
Дисковод: Optiarc DVD RW AD-7261S Adapter: 1 ID: 1
Режим чтения : ДостоверностьИспользование точного потока : ДаОтключение кэша аудио : ДаИспользование указателей C2 : Нет
Коррекция смещения при чтении : 48Способность читать области Lead-in и Lead-out : НетЗаполнение пропущенных сэмплов тишиной : ДаУдаление блоков с тишиной в начале и конце : НетПри вычислениях CRC использовались нулевые сэмплы : ДаИнтерфейс : Встроенный Win32-интерфейс для Win NT/2000
Выходной формат : Внутренние WAV-операцииФормат сэмплов : 44.100 Гц; 16 бит; стерео
TOC извлечённого CD
Трек | Старт | Длительность | Начальный сектор | Конечный сектор --------------------------------------------------------------------- 1 | 0:00.00 | 5:47.49 | 0 | 26073 2 | 5:47.49 | 6:21.09 | 26074 | 54657 3 | 12:08.58 | 6:32.46 | 54658 | 84103 4 | 18:41.29 | 4:58.06 | 84104 | 106459 5 | 23:39.35 | 5:46.31 | 106460 | 132440 6 | 29:25.66 | 6:22.59 | 132441 | 161149 7 | 35:48.50 | 6:33.11 | 161150 | 190635 8 | 42:21.61 | 5:49.52 | 190636 | 216862 9 | 48:11.38 | 5:14.69 | 216863 | 240481 10 | 53:26.32 | 6:40.62 | 240482 | 270543 11 | 60:07.19 | 6:23.57 | 270544 | 299325 12 | 66:31.01 | 7:51.48 | 299326 | 334698
Характеристики диапазона извлечения и сообщения об ошибках
Выбранный диапазон
Имя файла C:\Users\Meijin\Desktop\Новая папка (4)\Various - Original Hardcore Selection (CD1).wav
Пиковый уровень 99.8 % Качество диапазона 100.0 % CRC теста 1F850E0C CRC копии 1F850E0C Копирование... OK
Ошибок не произошло
AccurateRip: сводка
Трек 1 нет в базе данныхТрек 2 нет в базе данныхТрек 3 нет в базе данныхТрек 4 нет в базе данныхТрек 5 нет в базе данныхТрек 6 нет в базе данныхТрек 7 нет в базе данныхТрек 8 нет в базе данныхТрек 9 нет в базе данныхТрек 10 нет в базе данныхТрек 11 нет в базе данныхТрек 12 нет в базе данных
Ни одного трека нет в базе AccurateRip
Конец отчёта

Лог создания рипа CD2

Exact Audio Copy V0.99 prebeta 4 from 23. January 2008
Отчёт EAC об извлечении, выполненном 6. марта 2013, 21:08
Various / Original Hardcore Selection (CD2)
Дисковод: Optiarc DVD RW AD-7261S Adapter: 1 ID: 1
Режим чтения : ДостоверностьИспользование точного потока : ДаОтключение кэша аудио : ДаИспользование указателей C2 : Нет
Коррекция смещения при чтении : 48Способность читать области Lead-in и Lead-out : НетЗаполнение пропущенных сэмплов тишиной : ДаУдаление блоков с тишиной в начале и конце : НетПри вычислениях CRC использовались нулевые сэмплы : ДаИнтерфейс : Встроенный Win32-интерфейс для Win NT/2000
Выходной формат : Внутренние WAV-операцииФормат сэмплов : 44.100 Гц; 16 бит; стерео
TOC извлечённого CD
Трек | Старт | Длительность | Начальный сектор | Конечный сектор --------------------------------------------------------------------- 1 | 0:00.00 | 4:44.59 | 0 | 21358 2 | 4:44.59 | 5:32.02 | 21359 | 46260 3 | 10:16.61 | 5:23.61 | 46261 | 70546 4 | 15:40.47 | 5:56.40 | 70547 | 97286 5 | 21:37.12 | 6:18.01 | 97287 | 125637 6 | 27:55.13 | 5:45.13 | 125638 | 151525 7 | 33:40.26 | 6:40.39 | 151526 | 181564 8 | 40:20.65 | 5:45.09 | 181565 | 207448 9 | 46:05.74 | 5:15.15 | 207449 | 231088 10 | 51:21.14 | 6:09.20 | 231089 | 258783 11 | 57:30.34 | 6:24.72 | 258784 | 287655 12 | 63:55.31 | 7:55.59 | 287656 | 323339
Характеристики диапазона извлечения и сообщения об ошибках
Выбранный диапазон
Имя файла C:\Users\Meijin\Desktop\Новая папка (4)\Various - Original Hardcore Selection (CD2).wav
Пиковый уровень 99.8 % Качество диапазона 99.9 % CRC теста 101ECE71 CRC копии 101ECE71 Копирование... OK
Ошибок не произошло
AccurateRip: сводка
Трек 1 точное извлечение (доверие 2) [25EB4E7D]Трек 2 точное извлечение (доверие 2) [655C9C67]Трек 3 точное извлечение (доверие 2) [E59E4F5E]Трек 4 точное извлечение (доверие 2) [18D3346E]Трек 5 точное извлечение (доверие 2) [8F179F5A]Трек 6 точное извлечение (доверие 2) [9C823F7A]Трек 7 точное извлечение (доверие 2) [2AC4F4F7]Трек 8 точное извлечение (доверие 2) [58DDEDE7]Трек 9 точное извлечение (доверие 2) [95985489]Трек 10 точное извлечение (доверие 2) [DAB73E8B]Трек 11 точное извлечение (доверие 2) [06F5A0E8]Трек 12 точность не определена (достоверность 1) [F55165F1], AccurateRip вернул [93D69479]
11 трек(и) скопированы точно 1 трек(и) не удалось проверить на точность
Некоторые треки не прошли проверку на точность
Конец отчёта


Показать сообщения:    

Текущее время: 17-Дек 17:56

Часовой пояс: UTC ± 0


Вы не можете начинать темы
Вы не можете отвечать на сообщения
Вы не можете редактировать свои сообщения
Вы не можете удалять свои сообщения
Вы не можете голосовать в опросах
Вы не можете прикреплять файлы к сообщениям
Вы не можете скачивать файлы

!ВНИМАНИЕ!
Сайт не предоставляет электронные версии произведений, а занимается лишь коллекционированием и каталогизацией ссылок, присылаемых и публикуемых на форуме нашими читателями. Если вы являетесь правообладателем какого-либо представленного материала и не желаете, чтобы ссылка на него находилась в нашем каталоге, свяжитесь с нами, и мы незамедлительно удалим ее. Файлы для обмена на трекере предоставлены пользователями сайта, и администрация не несет ответственности за их содержание. Просьба не заливать файлы, защищенные авторскими правами, а также файлы нелегального содержания!