Важное объявление!
У Нас Все раздачи мультитрекерные, при нуле пиров в релизах, можете смело вставать на закачку!
 
Автор Сообщение

HUNTER

Стаж:
4 года 4 месяца
Сообщений:
56848

Репутация: 101

[+] [-]
Вне форума [Профиль] [ЛС]

Various Artists - Hardcore
Жанр: UK Hardcore, Happy Hardcore
Страна-производитель диска: UK
Год издания: 2004
Издатель (лейбл): Decadance Recordings
Номер по каталогу: DECSIX013
Аудиокодек: FLAC (*.flac)
Тип рипа: image+.cue
Битрейт аудио: lossless
Продолжительность: 5:28:46
Источник (релизер): Диск из личной коллекции
Наличие сканов в содержимом раздачи: да
Треклист:
Sy & Unknown Mix 1 (0:50:08)
01. Sy & Unknown – Keep The Crowd Jumping (Exclusive VIP Album Mix) (4:57)
02. Plus System - Blue Anthem (3:50)
03. DIRT – Locked Inside Your Mind (Breeze & Styles Remix) (4:45)
04. In Effect vs. Dougal & Gammer – Take Me On Up (4:59)
05. Insight – I Feel Alive (4:23)
06. Expression & G.B.H – Night Time (Sy & Unknown Remix) (5:40)
07. Plus System – Is This The Future (4:23)
08. Seph – Never Apart (5:21)
09. Duncan Oatham – Ready? (6:36)
10. GEOS Feat. Nice N Easy – Easy Inside (5:11)
CD2: Sy & Unknown Mix 2 (0:50:08)
01. Two's Company – Dream (5:02)
02. Collective, The – Kick It (Sy & Unknown Remix) (5:06)
03. Stargazer – Ultimate High (Exclusive Pumped Album Mix) (4:01)
04. Mozz & Speedy B – Drift (Sy & Unknown Remix) (5:52)
05. Seduction & Gammer – Fine Day (4:02)
06. Abeyance & Stompy – Star Tonight (5:51)
07. DJ Kurt – Rock Ya Hardcore (5:14)
08. CLSM – Reaching Out (Billy 'Daniel' Bunter & CLSM Remix) (4:53)
09. Styles & Breeze – Heartbeatz (Scott Brown Rmx) (5:30)
10. Sy & Unknown vs. DJ Seduction – Vigilante Hardcore (4:41)
CD3: Sy & Unknown Mix 3 (0:53:18)
01. DOK & Ponder – Faces Of Angels (CLSM Remix) (5:00)
02. Lukozade – Progression (6:15)
03. Scott Brown – Memories (3:35)
04. Insight – U Thrill Me (6:37)
05. CLSM – (Takes Me) Higher (DJ Seduction Remix) (4:35)
06. Recon & Flux – Free Again (5:49)
07. DJ Seduction vs. CLSM – Dancing The Night Away (Gammer Remix) (5:14)
08. Soundscape – Someday Soon (6:35)
09. Upriser – Missing You (Sy & Unknown Remix) (4:22)
10. Sparky – Velvet Heaven (Adam L Remix) (5:11)
CD4: Un-Mixed (1:01:42)
01. CLSM – Free Your Mind (2:35)
02. Devastate Feat. MC Sharkey – Terrabeat (6:46)
03. Brisk & Ham – Rock Da Party (7:09)
04. Demo & Ad Man – Pleasure & Pain (Frisky & Hujib Duet Remix) (7:56)
05. Simon Apex & Orion – The Hardcore Frequency (Ethos Remix) (6:42)
06. Marc Smith – Revival (6:28)
07. Dougal & Gammer – The Piano Song (6:46)
08. Scott Majestik – Tell Me Where You're At (Mad Badger Mix) (6:15)
09. Sy & Unknown – Listen To The Ace (Slipmatt Remix) (5:21)
10. Lee UHF – Let's Fight (Vocal Overkill Remix) (5:39)
CD5: Old Skool Un-Mixed (0:58:03)
01. Oasis – Incredible Bass (Slipmatt Awaited Remix) (5:25)
02. Crowd Pleasers – Volume 1 (5:29)
03. DJ Selecta & GL2 – Incognito (6:31)
04. DJ Ham – Is Anybody Out There? (5:36)
05. DJ Chewy – Rock This Place (5:21)
06. Happy Rollers – 95 Style (5:27)
07. A Sense Of Summer – On Top (Hixxy Remix) (4:45)
08. Fat Controller – In Complete Darkness (5:59)
09. Jimmy J And Cru-L-T – Six Days (7:29)
10. DJ Brisk – Airhead (5:58)
CD6: Old Skool Un-Mixed (0:55:15)
01. Ham \ Demo \ Justin Time – The Big Spill (5:15)
02. Sy & Unknown – Move Your Body (Remix) (4:23)
03. DJ Seduction – Leaving The World Behind (5:39)
04. Cheddar – Rollin (5:57)
05. DJ Sy – Alright (Remix) (5:32)
06. Sy & Unknown – Moments In Time (96 Remix) (6:04)
07. Slipmatt – Breaking Free (5:39)
08. Unknown & Heatwave – Big Bad Bass (6:09)
09. Sy & Unknown – Get Wicked (5:10)
10. Billy "Daniel" Bunter & J.D.S. – Let It Lift You (5:26)

-

Лог создания рипа CD1

Exact Audio Copy V0.99 prebeta 4 from 23. January 2008
Отчёт EAC об извлечении, выполненном 16. марта 2013, 10:08
Various / Hardcore (CD1)
Дисковод: Optiarc DVD RW AD-7261S Adapter: 1 ID: 1
Режим чтения : ДостоверностьИспользование точного потока : ДаОтключение кэша аудио : ДаИспользование указателей C2 : Нет
Коррекция смещения при чтении : 48Способность читать области Lead-in и Lead-out : НетЗаполнение пропущенных сэмплов тишиной : ДаУдаление блоков с тишиной в начале и конце : НетПри вычислениях CRC использовались нулевые сэмплы : ДаИнтерфейс : Встроенный Win32-интерфейс для Win NT/2000
Выходной формат : Внутренние WAV-операцииФормат сэмплов : 44.100 Гц; 16 бит; стерео
TOC извлечённого CD
Трек | Старт | Длительность | Начальный сектор | Конечный сектор --------------------------------------------------------------------- 1 | 0:00.00 | 4:57.08 | 0 | 22282 2 | 4:57.08 | 3:50.33 | 22283 | 39565 3 | 8:47.41 | 4:45.29 | 39566 | 60969 4 | 13:32.70 | 4:59.01 | 60970 | 83395 5 | 18:31.71 | 4:23.23 | 83396 | 103143 6 | 22:55.19 | 5:40.07 | 103144 | 128650 7 | 28:35.26 | 4:23.27 | 128651 | 148402 8 | 32:58.53 | 5:21.03 | 148403 | 172480 9 | 38:19.56 | 6:36.26 | 172481 | 202206 10 | 44:56.07 | 5:11.40 | 202207 | 225571
Характеристики диапазона извлечения и сообщения об ошибках
Выбранный диапазон
Имя файла C:\Users\Meijin\Desktop\Новая папка (4)\Various - Hardcore (CD1).wav
Пиковый уровень 99.5 % Качество диапазона 100.0 % CRC теста C122B54B CRC копии C122B54B Копирование... OK
Ошибок не произошло
AccurateRip: сводка
Трек 1 точность не определена (достоверность 2) [02493F6B], AccurateRip вернул [DB71BA1C]Трек 2 точность не определена (достоверность 2) [800CADBF], AccurateRip вернул [89E1D337]Трек 3 точность не определена (достоверность 2) [FFFEE106], AccurateRip вернул [432E955C]Трек 4 точность не определена (достоверность 2) [1F668329], AccurateRip вернул [1CADADB1]Трек 5 точность не определена (достоверность 2) [4E38049C], AccurateRip вернул [9D46A4B1]Трек 6 точность не определена (достоверность 2) [4A8C49B6], AccurateRip вернул [4ED9D618]Трек 7 точность не определена (достоверность 2) [21629D5D], AccurateRip вернул [9177845E]Трек 8 точность не определена (достоверность 2) [FFDF64CB], AccurateRip вернул [98B9A66D]Трек 9 точность не определена (достоверность 2) [38F9CA99], AccurateRip вернул [962A21F0]Трек 10 точность не определена (достоверность 2) [BDB9A820], AccurateRip вернул [55F7AD70]
Ни один трек не прошёл проверки на точностьВ вашей базе может быть иной вариант штамповки диска
Конец отчёта

Лог создания рипа CD2

Exact Audio Copy V0.99 prebeta 4 from 23. January 2008
Отчёт EAC об извлечении, выполненном 16. марта 2013, 10:42
Various / Hardcore (CD2)
Дисковод: Optiarc DVD RW AD-7261S Adapter: 1 ID: 1
Режим чтения : ДостоверностьИспользование точного потока : ДаОтключение кэша аудио : ДаИспользование указателей C2 : Нет
Коррекция смещения при чтении : 48Способность читать области Lead-in и Lead-out : НетЗаполнение пропущенных сэмплов тишиной : ДаУдаление блоков с тишиной в начале и конце : НетПри вычислениях CRC использовались нулевые сэмплы : ДаИнтерфейс : Встроенный Win32-интерфейс для Win NT/2000
Выходной формат : Внутренние WAV-операцииФормат сэмплов : 44.100 Гц; 16 бит; стерео
TOC извлечённого CD
Трек | Старт | Длительность | Начальный сектор | Конечный сектор --------------------------------------------------------------------- 1 | 0:00.00 | 5:02.15 | 0 | 22664 2 | 5:02.15 | 5:06.14 | 22665 | 45628 3 | 10:08.29 | 4:01.36 | 45629 | 63739 4 | 14:09.65 | 5:55.17 | 63740 | 90381 5 | 20:05.07 | 4:02.58 | 90382 | 108589 6 | 24:07.65 | 5:51.17 | 108590 | 134931 7 | 29:59.07 | 5:14.04 | 134932 | 158485 8 | 35:13.11 | 4:53.40 | 158486 | 180500 9 | 40:06.51 | 5:30.39 | 180501 | 205289 10 | 45:37.15 | 4:41.08 | 205290 | 226372
Характеристики диапазона извлечения и сообщения об ошибках
Выбранный диапазон
Имя файла C:\Users\Meijin\Desktop\Новая папка (4)\Various - Hardcore (CD2).wav
Пиковый уровень 100.0 % Качество диапазона 100.0 % CRC теста F58BDF96 CRC копии F58BDF96 Копирование... OK
Ошибок не произошло
AccurateRip: сводка
Трек 1 точность не определена (достоверность 2) [D7F24F85], AccurateRip вернул [7124C8E1]Трек 2 точность не определена (достоверность 2) [0CE0798A], AccurateRip вернул [405BD4AE]Трек 3 точность не определена (достоверность 2) [39DAC5BD], AccurateRip вернул [F297C055]Трек 4 точность не определена (достоверность 2) [E1E1A8BF], AccurateRip вернул [12D8B32B]Трек 5 точность не определена (достоверность 2) [50E44EFF], AccurateRip вернул [C93A601E]Трек 6 точность не определена (достоверность 2) [48823734], AccurateRip вернул [F5751806]Трек 7 точность не определена (достоверность 2) [734A4A40], AccurateRip вернул [D55A0439]Трек 8 точность не определена (достоверность 2) [BE0B3414], AccurateRip вернул [ACB69F34]Трек 9 точность не определена (достоверность 2) [075B9AF0], AccurateRip вернул [1AD3AB14]Трек 10 точность не определена (достоверность 2) [35B1B205], AccurateRip вернул [66F60583]
Ни один трек не прошёл проверки на точностьВ вашей базе может быть иной вариант штамповки диска
Конец отчёта

Лог создания рипа CD3

Exact Audio Copy V0.99 prebeta 4 from 23. January 2008
Отчёт EAC об извлечении, выполненном 16. марта 2013, 11:18
Various / Hardcore (CD3)
Дисковод: Optiarc DVD RW AD-7261S Adapter: 1 ID: 1
Режим чтения : ДостоверностьИспользование точного потока : ДаОтключение кэша аудио : ДаИспользование указателей C2 : Нет
Коррекция смещения при чтении : 48Способность читать области Lead-in и Lead-out : НетЗаполнение пропущенных сэмплов тишиной : ДаУдаление блоков с тишиной в начале и конце : НетПри вычислениях CRC использовались нулевые сэмплы : ДаИнтерфейс : Встроенный Win32-интерфейс для Win NT/2000
Выходной формат : Внутренние WAV-операцииФормат сэмплов : 44.100 Гц; 16 бит; стерео
TOC извлечённого CD
Трек | Старт | Длительность | Начальный сектор | Конечный сектор --------------------------------------------------------------------- 1 | 0:00.00 | 5:00.03 | 0 | 22502 2 | 5:00.03 | 6:15.49 | 22503 | 50676 3 | 11:15.52 | 3:35.26 | 50677 | 66827 4 | 14:51.03 | 6:37.55 | 66828 | 96657 5 | 21:28.58 | 4:35.55 | 96658 | 117337 6 | 26:04.38 | 5:49.30 | 117338 | 143542 7 | 31:53.68 | 5:14.29 | 143543 | 167121 8 | 37:08.22 | 6:35.02 | 167122 | 196748 9 | 43:43.24 | 4:22.54 | 196749 | 216452 10 | 48:06.03 | 5:11.45 | 216453 | 239822
Характеристики диапазона извлечения и сообщения об ошибках
Выбранный диапазон
Имя файла C:\Users\Meijin\Desktop\Новая папка (4)\Various - Hardcore (CD3).wav
Пиковый уровень 100.0 % Качество диапазона 100.0 % CRC теста D42A1E32 CRC копии D42A1E32 Копирование... OK
Ошибок не произошло
AccurateRip: сводка
Трек 1 точность не определена (достоверность 2) [650C4294], AccurateRip вернул [B95E1DDD]Трек 2 точность не определена (достоверность 2) [057BACA2], AccurateRip вернул [079CDE7F]Трек 3 точность не определена (достоверность 2) [F7BE1DEB], AccurateRip вернул [ACE1A102]Трек 4 точность не определена (достоверность 2) [028835FB], AccurateRip вернул [C2B4AF52]Трек 5 точность не определена (достоверность 2) [B5D707F5], AccurateRip вернул [64C90727]Трек 6 точность не определена (достоверность 2) [55C53344], AccurateRip вернул [09592E22]Трек 7 точность не определена (достоверность 2) [4E31E35E], AccurateRip вернул [4E03203D]Трек 8 точность не определена (достоверность 2) [9ACE9385], AccurateRip вернул [7618DF74]Трек 9 точность не определена (достоверность 2) [176D1DEB], AccurateRip вернул [C36FF548]Трек 10 точность не определена (достоверность 2) [DC688018], AccurateRip вернул [3E60FCFF]
Ни один трек не прошёл проверки на точностьВ вашей базе может быть иной вариант штамповки диска
Конец отчёта

Лог создания рипа CD4

Exact Audio Copy V0.99 prebeta 4 from 23. January 2008
Отчёт EAC об извлечении, выполненном 16. марта 2013, 11:54
Various / Hardcore (CD4)
Дисковод: Optiarc DVD RW AD-7261S Adapter: 1 ID: 1
Режим чтения : ДостоверностьИспользование точного потока : ДаОтключение кэша аудио : ДаИспользование указателей C2 : Нет
Коррекция смещения при чтении : 48Способность читать области Lead-in и Lead-out : НетЗаполнение пропущенных сэмплов тишиной : ДаУдаление блоков с тишиной в начале и конце : НетПри вычислениях CRC использовались нулевые сэмплы : ДаИнтерфейс : Встроенный Win32-интерфейс для Win NT/2000
Выходной формат : Внутренние WAV-операцииФормат сэмплов : 44.100 Гц; 16 бит; стерео
TOC извлечённого CD
Трек | Старт | Длительность | Начальный сектор | Конечный сектор --------------------------------------------------------------------- 1 | 0:00.00 | 2:35.66 | 0 | 11690 2 | 2:35.66 | 6:46.36 | 11691 | 42176 3 | 9:22.27 | 7:09.02 | 42177 | 74353 4 | 16:31.29 | 7:56.37 | 74354 | 110090 5 | 24:27.66 | 6:42.48 | 110091 | 140288 6 | 31:10.39 | 6:28.02 | 140289 | 169390 7 | 37:38.41 | 6:46.58 | 169391 | 199898 8 | 44:25.24 | 6:15.54 | 199899 | 228077 9 | 50:41.03 | 5:21.02 | 228078 | 252154 10 | 56:02.05 | 5:39.36 | 252155 | 277615
Характеристики диапазона извлечения и сообщения об ошибках
Выбранный диапазон
Имя файла C:\Users\Meijin\Desktop\Новая папка (4)\Various - Hardcore (CD4).wav
Пиковый уровень 100.0 % Качество диапазона 99.9 % CRC теста ACF4CBED CRC копии ACF4CBED Копирование... OK
Ошибок не произошло
AccurateRip: сводка
Трек 1 точность не определена (достоверность 2) [036776E9], AccurateRip вернул [9F148965]Трек 2 точность не определена (достоверность 2) [0CA12468], AccurateRip вернул [6F958B46]Трек 3 точность не определена (достоверность 2) [48B05C07], AccurateRip вернул [946D7EA7]Трек 4 точность не определена (достоверность 2) [9655AA2A], AccurateRip вернул [84715308]Трек 5 точность не определена (достоверность 2) [7160E9DA], AccurateRip вернул [ACB82606]Трек 6 точность не определена (достоверность 2) [2C8F603E], AccurateRip вернул [60AAC0E0]Трек 7 точность не определена (достоверность 2) [C5804C85], AccurateRip вернул [9501A6EB]Трек 8 точность не определена (достоверность 2) [038DB149], AccurateRip вернул [2D5F19FB]Трек 9 точность не определена (достоверность 2) [0CA189AF], AccurateRip вернул [1043660B]Трек 10 точность не определена (достоверность 2) [36185ED1], AccurateRip вернул [5403A1AD]
Ни один трек не прошёл проверки на точностьВ вашей базе может быть иной вариант штамповки диска
Конец отчёта

Лог создания рипа CD5

Exact Audio Copy V0.99 prebeta 4 from 23. January 2008
Отчёт EAC об извлечении, выполненном 16. марта 2013, 14:47
Various / Hardcore (CD5)
Дисковод: Optiarc DVD RW AD-7261S Adapter: 1 ID: 1
Режим чтения : ДостоверностьИспользование точного потока : ДаОтключение кэша аудио : ДаИспользование указателей C2 : Нет
Коррекция смещения при чтении : 48Способность читать области Lead-in и Lead-out : НетЗаполнение пропущенных сэмплов тишиной : ДаУдаление блоков с тишиной в начале и конце : НетПри вычислениях CRC использовались нулевые сэмплы : ДаИнтерфейс : Встроенный Win32-интерфейс для Win NT/2000
Выходной формат : Внутренние WAV-операцииФормат сэмплов : 44.100 Гц; 16 бит; стерео
TOC извлечённого CD
Трек | Старт | Длительность | Начальный сектор | Конечный сектор --------------------------------------------------------------------- 1 | 0:00.00 | 5:25.37 | 0 | 24411 2 | 5:25.37 | 5:29.12 | 24412 | 49098 3 | 10:54.49 | 6:31.45 | 49099 | 78468 4 | 17:26.19 | 5:36.47 | 78469 | 103715 5 | 23:02.66 | 5:21.14 | 103716 | 127804 6 | 28:24.05 | 5:27.34 | 127805 | 152363 7 | 33:51.39 | 4:45.03 | 152364 | 173741 8 | 38:36.42 | 5:59.17 | 173742 | 200683 9 | 44:35.59 | 7:29.10 | 200684 | 234368 10 | 52:04.69 | 5:58.25 | 234369 | 261243
Характеристики диапазона извлечения и сообщения об ошибках
Выбранный диапазон
Имя файла C:\Users\Meijin\Desktop\Новая папка (4)\Various - Hardcore (CD5).wav
Пиковый уровень 100.0 % Качество диапазона 100.0 % CRC теста AB47FF66 CRC копии AB47FF66 Копирование... OK
Ошибок не произошло
AccurateRip: сводка
Трек 1 точность не определена (достоверность 3) [F10CF1B2], AccurateRip вернул [A371685A]Трек 2 точность не определена (достоверность 3) [024D278B], AccurateRip вернул [8CFBE33D]Трек 3 точность не определена (достоверность 3) [A0B9C091], AccurateRip вернул [842445A5]Трек 4 точность не определена (достоверность 3) [8D725057], AccurateRip вернул [80534E53]Трек 5 точность не определена (достоверность 3) [F81D7F4B], AccurateRip вернул [629F377D]Трек 6 точность не определена (достоверность 3) [F84DD047], AccurateRip вернул [1D47BF13]Трек 7 точность не определена (достоверность 3) [A557633A], AccurateRip вернул [76171EA8]Трек 8 точность не определена (достоверность 3) [8655E3B4], AccurateRip вернул [7A81AB0A]Трек 9 точность не определена (достоверность 3) [C3C8A15C], AccurateRip вернул [8C66D8A2]Трек 10 точность не определена (достоверность 3) [41DD1D2B], AccurateRip вернул [A7DE90A1]
Ни один трек не прошёл проверки на точностьВ вашей базе может быть иной вариант штамповки диска
Конец отчёта

Лог создания рипа CD6

Exact Audio Copy V0.99 prebeta 4 from 23. January 2008
Отчёт EAC об извлечении, выполненном 16. марта 2013, 15:19
Various / Hardcore (CD6)
Дисковод: Optiarc DVD RW AD-7261S Adapter: 1 ID: 1
Режим чтения : ДостоверностьИспользование точного потока : ДаОтключение кэша аудио : ДаИспользование указателей C2 : Нет
Коррекция смещения при чтении : 48Способность читать области Lead-in и Lead-out : НетЗаполнение пропущенных сэмплов тишиной : ДаУдаление блоков с тишиной в начале и конце : НетПри вычислениях CRC использовались нулевые сэмплы : ДаИнтерфейс : Встроенный Win32-интерфейс для Win NT/2000
Выходной формат : Внутренние WAV-операцииФормат сэмплов : 44.100 Гц; 16 бит; стерео
TOC извлечённого CD
Трек | Старт | Длительность | Начальный сектор | Конечный сектор --------------------------------------------------------------------- 1 | 0:00.00 | 5:15.53 | 0 | 23677 2 | 5:15.53 | 4:23.19 | 23678 | 43421 3 | 9:38.72 | 5:39.48 | 43422 | 68894 4 | 15:18.45 | 5:57.26 | 68895 | 95695 5 | 21:15.71 | 5:32.37 | 95696 | 120632 6 | 26:48.33 | 6:04.22 | 120633 | 147954 7 | 32:52.55 | 5:39.27 | 147955 | 173406 8 | 38:32.07 | 6:09.18 | 173407 | 201099 9 | 44:41.25 | 5:10.27 | 201100 | 224376 10 | 49:51.52 | 5:26.03 | 224377 | 248829
Характеристики диапазона извлечения и сообщения об ошибках
Выбранный диапазон
Имя файла C:\Users\Meijin\Desktop\Новая папка (4)\Various - Hardcore (CD6).wav
Пиковый уровень 98.7 % Качество диапазона 100.0 % CRC теста 45A84971 CRC копии 45A84971 Копирование... OK
Ошибок не произошло
AccurateRip: сводка
Трек 1 точность не определена (достоверность 2) [5DE904E5], AccurateRip вернул [C859D835]Трек 2 точность не определена (достоверность 2) [2F0D454F], AccurateRip вернул [C5E63B67]Трек 3 точность не определена (достоверность 2) [5B36D963], AccurateRip вернул [7F9A9F8B]Трек 4 точность не определена (достоверность 2) [9C960F44], AccurateRip вернул [E76D1FE4]Трек 5 точность не определена (достоверность 2) [B62D883E], AccurateRip вернул [817947EE]Трек 6 точность не определена (достоверность 2) [ECE61246], AccurateRip вернул [C61FBCBE]Трек 7 точность не определена (достоверность 2) [29187252], AccurateRip вернул [AC10EF7A]Трек 8 точность не определена (достоверность 2) [E70151C3], AccurateRip вернул [EE1DDF2B]Трек 9 точность не определена (достоверность 2) [DB4F8687], AccurateRip вернул [CAA4DD77]Трек 10 точность не определена (достоверность 2) [B68A3343], AccurateRip вернул [06D2F9DB]
Ни один трек не прошёл проверки на точностьВ вашей базе может быть иной вариант штамповки диска
Конец отчёта

_________________
Показать сообщения:    

Текущее время: Сегодня 21:55

Часовой пояс: GMT



Вы не можете начинать темы
Вы не можете отвечать на сообщения
Вы не можете редактировать свои сообщения
Вы не можете удалять свои сообщения
Вы не можете голосовать в опросах
Вы не можете прикреплять файлы к сообщениям
Вы не можете скачивать файлы
Наши партнеры: интернет магазин Ивановского трикотажа textilla.ru