Важное объявление!
У Нас Все раздачи мультитрекерные, при нуле пиров в релизах, можете смело вставать на закачку!
Статистика раздачи
Размер:     |    Зарегистрирован:     |    Скачан:     |   
Нет
 
     
 
 
Автор Сообщение

HUNTER

Стаж:
5 лет
Сообщений:
67898

Репутация: 101

[+] [-]
Вне форума [Профиль] [ЛС]

Various Artists - Hardcore Nation Classics
Жанр: UK Hardcore, Happy Hardcore, Old Skool Rave
Страна-производитель диска: UK
Год издания: 2007
Издатель (лейбл): Warner Music TV
Номер по каталогу: WMTV039
Аудиокодек: FLAC (*.flac)
Тип рипа: image+.cue
Битрейт аудио: lossless
Продолжительность: 3:44:33
Источник (релизер): Диск из личной коллекции
Наличие сканов в содержимом раздачи: да
Треклист:
CD1: Hardcore (1:16:15)
01. JAKAZiD Feat. Barry Scott – Cillit Bang! (Original Mix) (1:24)
02. Sy & Unknown Featuring Lou Lou – Caught Up In Your Love 2006 (2:32)
03. Asa & S1 Feat. Lou Lou – Making Me Wanna Dance (Sy & Unknown Remix) (4:13)
04. Insight – Only Your Love (Scott Brown's Evolution Remix) (3:39)
05. Eclipse – 24/7 (Breeze & Styles Remix) (4:34)
06. Angel Eyez – Twilight (DeejayBee & InEffect Remix) (2:57)
07. Stu Allan – A Feeling (Visa Original Hardcore Mix) (4:34)
08. Visa – Let Me See You Move (Sy & Unknown Remix) (4:56)
09. Kelly Llorenna – Heart Of Gold (Hixxy Mix) (2:57)
10. CLSM – John Peel (Not Enough) (Fergus Mayhem Remix) (5:01)
11. Human Resource – Dominator (Joey Riot & DJ Technotrance Remix) (2:40)
12. Robbie Long & AMS – Trigger Hardcore (4:04)
13. Dougal & Gammer – Xtreme (4:56)
14. Mauro Picotto – Lizard (Robbie Long & Stormtrooper Remix) (3:17)
15. Cappella – U Got 2 Let The Music (Voyce, Douglas & K-Komplex Remix) (5:25)
16. CRW – I Feel Love (Breeze & Styles Remix) (3:53)
17. Mickey Skeedale Featuring Jenna – Through The Darkness (Dougal & Gammer Remix) (3:28)
18. United In Dance Featuring Lisa Marie – Still The One (4:45)
19. Visa – Fly Away (Hixxy Remix) (3:43)
20. Praga Khan – Injected With A Poison (Hixxy Mix) (3:08)
CD2: Happy Hardcore (1:13:45)
01. DJ Seduction – Hardcore Heaven (3:29)
02. 2 Bad Mice – Bombscare (3:04)
03. Urban Shakedown – Some Justice (4:22)
04. DJ Seduction – Come On (2:38)
05. DJ Seduction – Can U Feel It (4:17)
06. Gordon Edge – Compnded (Edge*1) (2:33)
07. Force Mass Motion – Panic (2:33)
08. Dr Krome & Time – The Slammer (3:07)
09. DJs Unite – Volume 1 (2:40)
10. DJ Seduction – Samplemania (3:54)
11. Force & Styles – Dancin' Through The Night (5:02)
12. Seduction & Eruption – Bust A New Jam (2:57)
13. DJ Breeze – Let's Fly (4:14)
14. Paul Elstak – Luv U More (4:00)
15. Visa – All I Need (Original Mix) (4:57)
16. Robbie Long & Devastate – 24 Track (4:55)
17. Diss Reaction – Jiiieehaaaa (3:38)
18. Hocus Pocus – Here's Johnny! (Hocus Pocus '96 Remix) (3:28)
19. Paul Elstak – Don't Leave Me Alone (3:06)
20. Scott Brown – Boomstick (4:43)
CD3: Old Skool Rave (1:14:34)
01. Bassheads, The – Is Anybody Out There? (3:16)
02. R.A.F. – We've Got To Live Together (Original Mix) (2:35)
03. 2 Bad Mice – 2 Bad Mice (4:56)
04. LFO – LFO (2:26)
05. Anticappella – 2/231 (3:10)
06. Fargetta – The Music Is Movin' (Original Mix) (3:42)
07. Cappella – U Got 2 Know (Original Mix) (3:48)
08. Altern8 – Activ8 (Come With Me) (2:45)
09. Sonz Of A Loop Era – Far Out (3:33)
10. Quadrophonia – Quadrophonia (3:04)
11. Liquid – Sweet Harmony (3:39)
12. Baby D – Let Me Be Your Fantasy (4:59)
13. Rhythm Quest – Closer To All Your Dreams (3:46)
14. Dream Frequency – Take Me (2:13)
15. Kicks Like A Mule – The Bouncer (3:00)
16. Jonny L – Hurt You So (2:48)
17. SL2 – On A Ragga Tip (4:07)
18. Terrorize – It's Just A Feeling (5:49)
19. Rachel Wallace – Tell Me Why (4:19)
20. Goldie – Inner City Life (3:42)
21. Prodigy, The – Everybody In The Place (155 And Rising) (2:46)

-

Лог создания рипа CD1

Exact Audio Copy V0.99 prebeta 4 from 23. January 2008
Отчёт EAC об извлечении, выполненном 23. февраля 2013, 15:21
Various / Hardcore Nation Classics (CD1) - Hardcore
Дисковод: Optiarc DVD RW AD-7261S Adapter: 1 ID: 1
Режим чтения : ДостоверностьИспользование точного потока : ДаОтключение кэша аудио : ДаИспользование указателей C2 : Нет
Коррекция смещения при чтении : 48Способность читать области Lead-in и Lead-out : НетЗаполнение пропущенных сэмплов тишиной : ДаУдаление блоков с тишиной в начале и конце : НетПри вычислениях CRC использовались нулевые сэмплы : ДаИнтерфейс : Встроенный Win32-интерфейс для Win NT/2000
Выходной формат : Внутренние WAV-операцииФормат сэмплов : 44.100 Гц; 16 бит; стерео
TOC извлечённого CD
Трек | Старт | Длительность | Начальный сектор | Конечный сектор --------------------------------------------------------------------- 1 | 0:00.00 | 1:24.34 | 0 | 6333 2 | 1:24.34 | 2:32.40 | 6334 | 17773 3 | 3:56.74 | 4:13.30 | 17774 | 36778 4 | 8:10.29 | 3:39.34 | 36779 | 53237 5 | 11:49.63 | 4:34.23 | 53238 | 73810 6 | 16:24.11 | 2:57.06 | 73811 | 87091 7 | 19:21.17 | 4:34.34 | 87092 | 107675 8 | 23:55.51 | 4:56.35 | 107676 | 129910 9 | 28:52.11 | 2:57.05 | 129911 | 143190 10 | 31:49.16 | 5:01.69 | 143191 | 165834 11 | 36:51.10 | 2:40.41 | 165835 | 177875 12 | 39:31.51 | 4:04.11 | 177876 | 196186 13 | 43:35.62 | 4:56.19 | 196187 | 218405 14 | 48:32.06 | 3:17.58 | 218406 | 233238 15 | 51:49.64 | 5:25.13 | 233239 | 257626 16 | 57:15.02 | 3:53.24 | 257627 | 275125 17 | 61:08.26 | 3:28.47 | 275126 | 290772 18 | 64:36.73 | 4:45.35 | 290773 | 312182 19 | 69:22.33 | 3:43.52 | 312183 | 328959 20 | 73:06.10 | 3:08.40 | 328960 | 343099
Характеристики диапазона извлечения и сообщения об ошибках
Выбранный диапазон
Имя файла C:\Users\Meijin\Desktop\Новая папка (4)\Various - Hardcore Nation Classics (CD1) - Hardcore.wav
Пиковый уровень 100.0 % Качество диапазона 100.0 % CRC теста 9D69AC14 CRC копии 9D69AC14 Копирование... OK
Ошибок не произошло
AccurateRip: сводка
Трек 1 точность не определена (достоверность 1) [423A5E76], AccurateRip вернул [3628E784]Трек 2 точность не определена (достоверность 1) [3A198D10], AccurateRip вернул [2A58F153]Трек 3 точность не определена (достоверность 1) [1A908BB2], AccurateRip вернул [797643A5]Трек 4 точность не определена (достоверность 1) [000E1AFD], AccurateRip вернул [F44481DC]Трек 5 точность не определена (достоверность 1) [429FF474], AccurateRip вернул [6C5A521C]Трек 6 точность не определена (достоверность 1) [D6F7B22A], AccurateRip вернул [1433FDC3]Трек 7 точность не определена (достоверность 1) [F0801536], AccurateRip вернул [13328DD5]Трек 8 точность не определена (достоверность 1) [F992D83A], AccurateRip вернул [AC1B639E]Трек 9 точность не определена (достоверность 1) [2FE619AE], AccurateRip вернул [8E6EFCDF]Трек 10 точность не определена (достоверность 1) [A12C8FF9], AccurateRip вернул [AF47D697]Трек 11 точность не определена (достоверность 1) [5320036C], AccurateRip вернул [6216FE59]Трек 12 точность не определена (достоверность 1) [2003B4E2], AccurateRip вернул [35F0B9C0]Трек 13 точность не определена (достоверность 1) [00C44E59], AccurateRip вернул [04F8DDAF]Трек 14 точность не определена (достоверность 1) [4F7369C0], AccurateRip вернул [736D212C]Трек 15 точность не определена (достоверность 1) [515B9E52], AccurateRip вернул [81EAA2FF]Трек 16 точность не определена (достоверность 1) [47EA3001], AccurateRip вернул [D78130DD]Трек 17 точность не определена (достоверность 1) [94574F25], AccurateRip вернул [7156610C]Трек 18 точность не определена (достоверность 1) [1CE00BD8], AccurateRip вернул [310E6E0F]Трек 19 точность не определена (достоверность 1) [E3FD5696], AccurateRip вернул [1612C72D]Трек 20 точность не определена (достоверность 1) [97F7D72E], AccurateRip вернул [F070F133]
Ни один трек не прошёл проверки на точностьВ вашей базе может быть иной вариант штамповки диска
Конец отчёта

Лог создания рипа CD2

Exact Audio Copy V0.99 prebeta 4 from 23. January 2008
Отчёт EAC об извлечении, выполненном 23. февраля 2013, 16:22
Various / Hardcore Nation Classics (CD2) - Happy Hardcore
Дисковод: Optiarc DVD RW AD-7261S Adapter: 1 ID: 1
Режим чтения : ДостоверностьИспользование точного потока : ДаОтключение кэша аудио : ДаИспользование указателей C2 : Нет
Коррекция смещения при чтении : 48Способность читать области Lead-in и Lead-out : НетЗаполнение пропущенных сэмплов тишиной : ДаУдаление блоков с тишиной в начале и конце : НетПри вычислениях CRC использовались нулевые сэмплы : ДаИнтерфейс : Встроенный Win32-интерфейс для Win NT/2000
Выходной формат : Внутренние WAV-операцииФормат сэмплов : 44.100 Гц; 16 бит; стерео
TOC извлечённого CD
Трек | Старт | Длительность | Начальный сектор | Конечный сектор --------------------------------------------------------------------- 1 | 0:00.00 | 3:29.68 | 0 | 15742 2 | 3:29.68 | 3:04.09 | 15743 | 29551 3 | 6:34.02 | 4:22.38 | 29552 | 49239 4 | 10:56.40 | 2:38.14 | 49240 | 61103 5 | 13:34.54 | 4:17.38 | 61104 | 80416 6 | 17:52.17 | 2:33.25 | 80417 | 91916 7 | 20:25.42 | 2:33.25 | 91917 | 103416 8 | 22:58.67 | 3:07.11 | 103417 | 117452 9 | 26:06.03 | 2:40.61 | 117453 | 129513 10 | 28:46.64 | 3:54.08 | 129514 | 147071 11 | 32:40.72 | 5:02.26 | 147072 | 169747 12 | 37:43.23 | 2:57.45 | 169748 | 183067 13 | 40:40.68 | 4:14.06 | 183068 | 202123 14 | 44:54.74 | 4:00.05 | 202124 | 220128 15 | 48:55.04 | 4:57.35 | 220129 | 242438 16 | 53:52.39 | 4:55.65 | 242439 | 264628 17 | 58:48.29 | 3:38.00 | 264629 | 280978 18 | 62:26.29 | 3:28.63 | 280979 | 296641 19 | 65:55.17 | 3:06.33 | 296642 | 310624 20 | 69:01.50 | 4:43.14 | 310625 | 331863
Характеристики диапазона извлечения и сообщения об ошибках
Выбранный диапазон
Имя файла C:\Users\Meijin\Desktop\Новая папка (4)\Various - Hardcore Nation Classics (CD2) - Happy Hardcore.wav
Пиковый уровень 100.0 % Качество диапазона 100.0 % CRC теста FE913B77 CRC копии FE913B77 Копирование... OK
Ошибок не произошло
AccurateRip: сводка
Трек 1 точность не определена (достоверность 1) [2E49EC96], AccurateRip вернул [49A67B45]Трек 2 точность не определена (достоверность 1) [36C8EF6A], AccurateRip вернул [FC3D12E7]Трек 3 точность не определена (достоверность 1) [5FC89721], AccurateRip вернул [C41874B8]Трек 4 точность не определена (достоверность 1) [20336801], AccurateRip вернул [0255951F]Трек 5 точность не определена (достоверность 1) [A2D6E607], AccurateRip вернул [36700CD6]Трек 6 точность не определена (достоверность 1) [1FDC74DC], AccurateRip вернул [1E664AC9]Трек 7 точность не определена (достоверность 1) [0B7C9130], AccurateRip вернул [D125ED89]Трек 8 точность не определена (достоверность 1) [6AAA0AF4], AccurateRip вернул [52136DC2]Трек 9 точность не определена (достоверность 1) [C5E3EA61], AccurateRip вернул [4AE3B04C]Трек 10 точность не определена (достоверность 1) [9E236617], AccurateRip вернул [DE41672A]Трек 11 точность не определена (достоверность 1) [D51297B0], AccurateRip вернул [40FDB83D]Трек 12 точность не определена (достоверность 1) [A13E44DF], AccurateRip вернул [C5658194]Трек 13 точность не определена (достоверность 1) [6A82E7E2], AccurateRip вернул [74B5558B]Трек 14 точность не определена (достоверность 1) [744C2F1E], AccurateRip вернул [86F86E03]Трек 15 точность не определена (достоверность 1) [5DC68086], AccurateRip вернул [D9125700]Трек 16 точность не определена (достоверность 1) [0874DC02], AccurateRip вернул [0C3889B8]Трек 17 точность не определена (достоверность 1) [52BD4213], AccurateRip вернул [4D170A44]Трек 18 точность не определена (достоверность 1) [E722DF00], AccurateRip вернул [74BFF200]Трек 19 точность не определена (достоверность 1) [37B03831], AccurateRip вернул [E49454EE]Трек 20 точность не определена (достоверность 1) [DE4CD90D], AccurateRip вернул [DB5489D1]
Ни один трек не прошёл проверки на точностьВ вашей базе может быть иной вариант штамповки диска
Конец отчёта

Лог создания рипа CD3

Exact Audio Copy V0.99 prebeta 4 from 23. January 2008
Отчёт EAC об извлечении, выполненном 23. февраля 2013, 18:01
Various / Hardcore Nation Classics (CD3) - Old Skool Rave
Дисковод: Optiarc DVD RW AD-7261S Adapter: 1 ID: 1
Режим чтения : ДостоверностьИспользование точного потока : ДаОтключение кэша аудио : ДаИспользование указателей C2 : Нет
Коррекция смещения при чтении : 48Способность читать области Lead-in и Lead-out : НетЗаполнение пропущенных сэмплов тишиной : ДаУдаление блоков с тишиной в начале и конце : НетПри вычислениях CRC использовались нулевые сэмплы : ДаИнтерфейс : Встроенный Win32-интерфейс для Win NT/2000
Выходной формат : Внутренние WAV-операцииФормат сэмплов : 44.100 Гц; 16 бит; стерео
TOC извлечённого CD
Трек | Старт | Длительность | Начальный сектор | Конечный сектор --------------------------------------------------------------------- 1 | 0:00.00 | 3:16.34 | 0 | 14733 2 | 3:16.34 | 2:35.40 | 14734 | 26398 3 | 5:51.74 | 4:56.13 | 26399 | 48611 4 | 10:48.12 | 2:26.64 | 48612 | 59625 5 | 13:15.01 | 3:10.52 | 59626 | 73927 6 | 16:25.53 | 3:42.53 | 73928 | 90630 7 | 20:08.31 | 3:48.08 | 90631 | 107738 8 | 23:56.39 | 2:45.06 | 107739 | 120119 9 | 26:41.45 | 3:33.51 | 120120 | 136145 10 | 30:15.21 | 3:04.67 | 136146 | 150012 11 | 33:20.13 | 3:39.40 | 150013 | 166477 12 | 36:59.53 | 4:59.55 | 166478 | 188957 13 | 41:59.33 | 3:46.42 | 188958 | 205949 14 | 45:46.00 | 2:13.25 | 205950 | 215949 15 | 47:59.25 | 3:00.59 | 215950 | 229508 16 | 51:00.09 | 2:48.07 | 229509 | 242115 17 | 53:48.16 | 4:07.16 | 242116 | 260656 18 | 57:55.32 | 5:49.72 | 260657 | 286903 19 | 63:45.29 | 4:19.08 | 286904 | 306336 20 | 68:04.37 | 3:42.73 | 306337 | 323059 21 | 71:47.35 | 2:46.28 | 323060 | 335537
Характеристики диапазона извлечения и сообщения об ошибках
Выбранный диапазон
Имя файла C:\Users\Meijin\Desktop\Новая папка (4)\Various - Hardcore Nation Classics (CD3) - Old Skool Rave.wav
Пиковый уровень 100.0 % Качество диапазона 100.0 % CRC теста 4363D1AF CRC копии 4363D1AF Копирование... OK
Ошибок не произошло
AccurateRip: сводка
Трек 1 точность не определена (достоверность 1) [76C36121], AccurateRip вернул [10698D44]Трек 2 точность не определена (достоверность 1) [A76361D2], AccurateRip вернул [EC00DEE3]Трек 3 точность не определена (достоверность 1) [1CF6DED6], AccurateRip вернул [E766E80E]Трек 4 точность не определена (достоверность 1) [A0051481], AccurateRip вернул [34252537]Трек 5 точность не определена (достоверность 1) [219D5829], AccurateRip вернул [9FD2D2CF]Трек 6 точность не определена (достоверность 1) [8C45629F], AccurateRip вернул [00FCF51B]Трек 7 точность не определена (достоверность 1) [21C8ECE0], AccurateRip вернул [D0780435]Трек 8 точность не определена (достоверность 1) [691D00D8], AccurateRip вернул [C5C880EF]Трек 9 точность не определена (достоверность 1) [FA4871F2], AccurateRip вернул [4B49668F]Трек 10 точность не определена (достоверность 1) [C2933B9F], AccurateRip вернул [5B4ED41A]Трек 11 точность не определена (достоверность 1) [971ACE14], AccurateRip вернул [2474510B]Трек 12 точность не определена (достоверность 1) [094F503B], AccurateRip вернул [0E3A2803]Трек 13 точность не определена (достоверность 1) [439DD40A], AccurateRip вернул [F2DBAD13]Трек 14 точность не определена (достоверность 1) [29C836B3], AccurateRip вернул [F6D14392]Трек 15 точность не определена (достоверность 1) [B11A641B], AccurateRip вернул [9F52976F]Трек 16 точность не определена (достоверность 1) [DA7105EB], AccurateRip вернул [33EBCC5A]Трек 17 точность не определена (достоверность 1) [B913AA0F], AccurateRip вернул [BDBDAB52]Трек 18 точность не определена (достоверность 1) [A9D50EC3], AccurateRip вернул [16ABCA02]Трек 19 точность не определена (достоверность 1) [E172B9D8], AccurateRip вернул [5EC1340B]Трек 20 точность не определена (достоверность 1) [42D72741], AccurateRip вернул [42C48C99]Трек 21 точность не определена (достоверность 1) [490D2946], AccurateRip вернул [D258BC84]
Ни один трек не прошёл проверки на точностьВ вашей базе может быть иной вариант штамповки диска
Конец отчёта

_________________
Показать сообщения:    

Текущее время: Сегодня 14:48

Часовой пояс: GMT



Вы не можете начинать темы
Вы не можете отвечать на сообщения
Вы не можете редактировать свои сообщения
Вы не можете удалять свои сообщения
Вы не можете голосовать в опросах
Вы не можете прикреплять файлы к сообщениям
Вы не можете скачивать файлы