Ивановский Торрент трекер
Яндекс.Погода
 

[Цитировать]
HUNTER

Fracus & Darwin - Point Of No Return
Жанр: UK Hardcore
Носитель: CD
Страна-производитель диска (релиза): UK
Год издания: 2012
Издатель (лейбл): Hardcore Underground
Номер по каталогу: HUAACD002
Аудиокодек: FLAC (*.flac)
Тип рипа: tracks+.cue
Битрейт аудио: lossless
Продолжительность: 01:15:56
Источник (релизер): Собственный рип
Наличие сканов в содержимом раздачи: нет
Треклист:
01. Fracus & Darwin vs. CLSM feat. Indie-Go Blue - Chime
02. Fracus & Darwin - No Disguise
03. Fracus & Darwin - Magnetised
04. Fracus & Darwin - Turn Back Time
05. Fracus & Darwin - Hard To Find
06. Fracus & Darwin feat. Jessica Palmer - Love Comes Back
07. Fracus & Darwin feat. Frikshon - Voodoo Magic
08. Fracus & Darwin - Yesterday
09. Fracus & Darwin feat. Chwhynny - Drivetime
10. Fracus & Darwin - Music Blocks
11. Fracus & Darwin feat. Cari Winter - Standing In The Rain
12. Fracus & Darwin vs. Obie - Snap!
13. Fracus & Darwin - Step Down
14. Fracus & Darwin feat. Becca Hossany - Got The Rhythm
15. Fracus & Darwin feat. Cari Winter - I'll Be Ready
16. Fracus & Darwin - Found A Groove
17. Fracus & Darwin - Circle

Лог создания рипа

Exact Audio Copy V1.0 beta 3 from 29. August 2011
Отчёт EAC об извлечении, выполненном 30. декабря 2014, 23:17
Fracus & Darwin / Point Of No Return
Дисковод: PIONEER DVD-RW DVR-220L Adapter: 0 ID: 0
Режим чтения : ДостоверностьИспользование точного потока : ДаОтключение кэша аудио : ДаИспользование указателей C2 : Нет
Коррекция смещения при чтении : 6Способность читать области Lead-in и Lead-out : НетЗаполнение пропущенных сэмплов тишиной : ДаУдаление блоков с тишиной в начале и конце : НетПри вычислениях CRC использовались нулевые сэмплы : ДаИнтерфейс : Встроенный Win32-интерфейс для Win NT/2000Обработка зазоров : Добавлено к предыдущему треку
Выходной формат : Пользовательский кодировщикВыбранный битрейт : 128 kBit/sКачество : ВысокийДобавление ID3-тега : НетУтилита сжатия : C:\Program Files (x86)\Exact Audio Copy\FLAC\FLAC.EXEДополнительные параметры : -V -8 -T "Genre=%genre%" -T "Artist=%artist%" -T "Title=%title%" -T "Album=%albumtitle%" -T "Date=%year%" -T "Tracknumber=%tracknr%" -T "Comment=%comment%" %source%
TOC извлечённого CD
Трек | Старт | Длительность | Начальный сектор | Конечный сектор --------------------------------------------------------------------- 1 | 0:00.00 | 3:25.72 | 0 | 15446 2 | 3:25.72 | 3:45.07 | 15447 | 32328 3 | 7:11.04 | 5:30.01 | 32329 | 57079 4 | 12:41.05 | 5:15.60 | 57080 | 80764 5 | 17:56.65 | 3:46.27 | 80765 | 97741 6 | 21:43.17 | 5:54.67 | 97742 | 124358 7 | 27:38.09 | 4:15.02 | 124359 | 143485 8 | 31:53.11 | 4:30.38 | 143486 | 163773 9 | 36:23.49 | 3:28.24 | 163774 | 179397 10 | 39:51.73 | 4:40.46 | 179398 | 200443 11 | 44:32.44 | 4:08.00 | 200444 | 219043 12 | 48:40.44 | 5:12.46 | 219044 | 242489 13 | 53:53.15 | 4:20.65 | 242490 | 262054 14 | 58:14.05 | 4:51.37 | 262055 | 283916 15 | 63:05.42 | 3:36.31 | 283917 | 300147 16 | 66:41.73 | 4:52.62 | 300148 | 322109 17 | 71:34.60 | 4:53.53 | 322110 | 344137
Трек 1
Имя файла D:\Random, Music\Point Of No Return\01. Fracus & Darwin vs. CLSM feat. Indie-Go Blue - Chime.wav
Длина предзазора 0:00:02.00
Пиковый уровень 99.9 % Скорость извлечения 4.6 X Качество трека 100.0 % CRC теста E04BEEFE CRC копии E04BEEFE Копирование... OK
Трек 2
Имя файла D:\Random, Music\Point Of No Return\02. Fracus & Darwin - No Disguise.wav
Длина предзазора 0:00:02.00
Пиковый уровень 99.9 % Скорость извлечения 4.4 X Качество трека 99.9 % CRC теста 10311A5A CRC копии 10311A5A Копирование... OK
Трек 3
Имя файла D:\Random, Music\Point Of No Return\03. Fracus & Darwin - Magnetised.wav
Длина предзазора 0:00:02.00
Пиковый уровень 99.9 % Скорость извлечения 5.2 X Качество трека 99.9 % CRC теста 54A955E0 CRC копии 54A955E0 Копирование... OK
Трек 4
Имя файла D:\Random, Music\Point Of No Return\04. Fracus & Darwin - Turn Back Time.wav
Длина предзазора 0:00:02.00
Пиковый уровень 99.9 % Скорость извлечения 6.2 X Качество трека 100.0 % CRC теста BE976CD0 CRC копии BE976CD0 Копирование... OK
Трек 5
Имя файла D:\Random, Music\Point Of No Return\05. Fracus & Darwin - Hard To Find.wav
Длина предзазора 0:00:02.00
Пиковый уровень 99.9 % Скорость извлечения 6.0 X Качество трека 100.0 % CRC теста 9D8F5728 CRC копии 9D8F5728 Копирование... OK
Трек 6
Имя файла D:\Random, Music\Point Of No Return\06. Fracus & Darwin feat. Jessica Palmer - Love Comes Back.wav
Длина предзазора 0:00:02.00
Пиковый уровень 99.9 % Скорость извлечения 6.5 X Качество трека 99.9 % CRC теста 932311AF CRC копии 932311AF Копирование... OK
Трек 7
Имя файла D:\Random, Music\Point Of No Return\07. Fracus & Darwin feat. Frikshon - Voodoo Magic.wav
Длина предзазора 0:00:02.00
Пиковый уровень 99.9 % Скорость извлечения 7.3 X Качество трека 100.0 % CRC теста E708FB7F CRC копии E708FB7F Копирование... OK
Трек 8
Имя файла D:\Random, Music\Point Of No Return\08. Fracus & Darwin - Yesterday.wav
Длина предзазора 0:00:02.00
Пиковый уровень 99.9 % Скорость извлечения 7.5 X Качество трека 100.0 % CRC теста 9DCCD9D8 CRC копии 9DCCD9D8 Копирование... OK
Трек 9
Имя файла D:\Random, Music\Point Of No Return\09. Fracus & Darwin feat. Chwhynny - Drivetime.wav
Длина предзазора 0:00:02.00
Пиковый уровень 99.8 % Скорость извлечения 7.2 X Качество трека 100.0 % CRC теста 686B5831 CRC копии 686B5831 Копирование... OK
Трек 10
Имя файла D:\Random, Music\Point Of No Return\10. Fracus & Darwin - Music Blocks.wav
Длина предзазора 0:00:02.00
Пиковый уровень 99.9 % Скорость извлечения 8.1 X Качество трека 100.0 % CRC теста 3FA44CD5 CRC копии 3FA44CD5 Копирование... OK
Трек 11
Имя файла D:\Random, Music\Point Of No Return\11. Fracus & Darwin feat. Cari Winter - Standing In The Rain.wav
Длина предзазора 0:00:02.00
Пиковый уровень 99.9 % Скорость извлечения 6.3 X Качество трека 99.9 % CRC теста 7C4F06FF CRC копии 7C4F06FF Копирование... OK
Трек 12
Имя файла D:\Random, Music\Point Of No Return\12. Fracus & Darwin vs. Obie - Snap!.wav
Длина предзазора 0:00:02.00
Пиковый уровень 99.9 % Скорость извлечения 8.4 X Качество трека 100.0 % CRC теста C088B44A CRC копии C088B44A Копирование... OK
Трек 13
Имя файла D:\Random, Music\Point Of No Return\13. Fracus & Darwin - Step Down.wav
Длина предзазора 0:00:02.00
Пиковый уровень 99.9 % Скорость извлечения 8.9 X Качество трека 100.0 % CRC теста BB9EE926 CRC копии BB9EE926 Копирование... OK
Трек 14
Имя файла D:\Random, Music\Point Of No Return\14. Fracus & Darwin feat. Becca Hossany - Got The Rhythm.wav
Длина предзазора 0:00:02.00
Пиковый уровень 99.9 % Скорость извлечения 8.3 X Качество трека 99.9 % CRC теста BF88B968 CRC копии BF88B968 Копирование... OK
Трек 15
Имя файла D:\Random, Music\Point Of No Return\15. Fracus & Darwin feat. Cari Winter - I'll Be Ready.wav
Длина предзазора 0:00:02.00
Пиковый уровень 99.9 % Скорость извлечения 9.1 X Качество трека 100.0 % CRC теста 98DBC1A5 CRC копии 98DBC1A5 Копирование... OK
Трек 16
Имя файла D:\Random, Music\Point Of No Return\16. Fracus & Darwin - Found A Groove.wav
Длина предзазора 0:00:02.00
Пиковый уровень 99.9 % Скорость извлечения 8.7 X Качество трека 99.9 % CRC теста FA8E3CF3 CRC копии FA8E3CF3 Копирование... OK
Трек 17
Имя файла D:\Random, Music\Point Of No Return\17. Fracus & Darwin - Circle.wav
Длина предзазора 0:00:02.00
Пиковый уровень 99.9 % Скорость извлечения 10.1 X Качество трека 100.0 % CRC теста 6631D6BF CRC копии 6631D6BF Копирование... OK
Ошибок не произошло
Конец отчёта
==== Контрольная сумма отчёта 5622CE731F26D692F3E0B943A9910933C150452BF4CF248DF121DD46542ABE80 ====

Содержание индексной карты (.CUE)

REM DATE 2012REM DISCID F611EC11REM COMMENT "ExactAudioCopy v1.0b3"PERFORMER "Fracus & Darwin"TITLE "Point Of No Return"FILE "01. Fracus & Darwin vs. CLSM feat. Indie-Go Blue - Chime.wav" WAVE TRACK 01 AUDIO TITLE "Chime" PERFORMER "Fracus & Darwin vs. CLSM feat. Indie-Go Blue" ISRC GBPSX1200013 INDEX 01 00:00:00 TRACK 02 AUDIO TITLE "No Disguise" PERFORMER "Fracus & Darwin" ISRC GBPSX1200014 INDEX 00 03:23:72FILE "02. Fracus & Darwin - No Disguise.wav" WAVE INDEX 01 00:00:00 TRACK 03 AUDIO TITLE "Magnetised" PERFORMER "Fracus & Darwin" ISRC GBPSX1200015 INDEX 00 03:43:07FILE "03. Fracus & Darwin - Magnetised.wav" WAVE INDEX 01 00:00:00 TRACK 04 AUDIO TITLE "Turn Back Time" PERFORMER "Fracus & Darwin" ISRC GBPSX1200016 INDEX 00 05:28:01FILE "04. Fracus & Darwin - Turn Back Time.wav" WAVE INDEX 01 00:00:00 TRACK 05 AUDIO TITLE "Hard To Find" PERFORMER "Fracus & Darwin" ISRC GBPSX1200017 INDEX 00 05:13:60FILE "05. Fracus & Darwin - Hard To Find.wav" WAVE INDEX 01 00:00:00 TRACK 06 AUDIO TITLE "Love Comes Back" PERFORMER "Fracus & Darwin feat. Jessica Palmer" ISRC GBPSX1200018 INDEX 00 03:44:27FILE "06. Fracus & Darwin feat. Jessica Palmer - Love Comes Back.wav" WAVE INDEX 01 00:00:00 TRACK 07 AUDIO TITLE "Voodoo Magic" PERFORMER "Fracus & Darwin feat. Frikshon" ISRC GBPSX1200019 INDEX 00 05:52:67FILE "07. Fracus & Darwin feat. Frikshon - Voodoo Magic.wav" WAVE INDEX 01 00:00:00 TRACK 08 AUDIO TITLE "Yesterday" PERFORMER "Fracus & Darwin" ISRC GBPSX1200020 INDEX 00 04:13:02FILE "08. Fracus & Darwin - Yesterday.wav" WAVE INDEX 01 00:00:00 TRACK 09 AUDIO TITLE "Drivetime" PERFORMER "Fracus & Darwin feat. Chwhynny" ISRC GBPSX1200021 INDEX 00 04:28:38FILE "09. Fracus & Darwin feat. Chwhynny - Drivetime.wav" WAVE INDEX 01 00:00:00 TRACK 10 AUDIO TITLE "Music Blocks" PERFORMER "Fracus & Darwin" ISRC GBPSX1200022 INDEX 00 03:26:24FILE "10. Fracus & Darwin - Music Blocks.wav" WAVE INDEX 01 00:00:00 TRACK 11 AUDIO TITLE "Standing In The Rain" PERFORMER "Fracus & Darwin feat. Cari Winter" ISRC GBPSX1200023 INDEX 00 04:38:46FILE "11. Fracus & Darwin feat. Cari Winter - Standing In The Rain.wav" WAVE INDEX 01 00:00:00 TRACK 12 AUDIO TITLE "Snap!" PERFORMER "Fracus & Darwin vs. Obie" ISRC GBPSX1200024 INDEX 00 04:06:00FILE "12. Fracus & Darwin vs. Obie - Snap!.wav" WAVE INDEX 01 00:00:00 TRACK 13 AUDIO TITLE "Step Down" PERFORMER "Fracus & Darwin" ISRC GBPSX1200025 INDEX 00 05:10:46FILE "13. Fracus & Darwin - Step Down.wav" WAVE INDEX 01 00:00:00 TRACK 14 AUDIO TITLE "Got The Rhythm" PERFORMER "Fracus & Darwin feat. Becca Hossany" ISRC GBPSX1200026 INDEX 00 04:18:65FILE "14. Fracus & Darwin feat. Becca Hossany - Got The Rhythm.wav" WAVE INDEX 01 00:00:00 TRACK 15 AUDIO TITLE "I'll Be Ready" PERFORMER "Fracus & Darwin feat. Cari Winter" ISRC GBPSX1200027 INDEX 00 04:49:37FILE "15. Fracus & Darwin feat. Cari Winter - I'll Be Ready.wav" WAVE INDEX 01 00:00:00 TRACK 16 AUDIO TITLE "Found A Groove" PERFORMER "Fracus & Darwin" ISRC GBPSX1200028 INDEX 00 03:34:31FILE "16. Fracus & Darwin - Found A Groove.wav" WAVE INDEX 01 00:00:00 TRACK 17 AUDIO TITLE "Circle" PERFORMER "Fracus & Darwin" ISRC GBPSX1200029 INDEX 00 04:50:62FILE "17. Fracus & Darwin - Circle.wav" WAVE INDEX 01 00:00:00

Лог проверки качества

AUDIOCHECKER v2.0 beta (build 457) - by Dester - opdester@freemail.hu~~~~~~~~~~~~~~~~~~~~~~~~~~~~~~~~~~-=== НЕ РЕДАКТИРУЙТЕ ЭТОТ ФАЙЛ! ===-
Путь: ...\Point Of No Return
01 -=- 01. Fracus & Darwin vs. CLSM feat. Indie-Go Blue - Chime.flac -=- CDDA (100%)02 -=- 02. Fracus & Darwin - No Disguise.flac -=- CDDA (100%)03 -=- 03. Fracus & Darwin - Magnetised.flac -=- CDDA (100%)04 -=- 04. Fracus & Darwin - Turn Back Time.flac -=- CDDA (100%)05 -=- 05. Fracus & Darwin - Hard To Find.flac -=- CDDA (99%)06 -=- 06. Fracus & Darwin feat. Jessica Palmer - Love Comes Back.flac -=- CDDA (100%)07 -=- 07. Fracus & Darwin feat. Frikshon - Voodoo Magic.flac -=- CDDA (99%)08 -=- 08. Fracus & Darwin - Yesterday.flac -=- CDDA (99%)09 -=- 09. Fracus & Darwin feat. Chwhynny - Drivetime.flac -=- CDDA (100%)10 -=- 10. Fracus & Darwin - Music Blocks.flac -=- CDDA (99%)11 -=- 11. Fracus & Darwin feat. Cari Winter - Standing In The Rain.flac -=- CDDA (100%)12 -=- 12. Fracus & Darwin vs. Obie - Snap!.flac -=- CDDA (100%)13 -=- 13. Fracus & Darwin - Step Down.flac -=- CDDA (100%)14 -=- 14. Fracus & Darwin feat. Becca Hossany - Got The Rhythm.flac -=- CDDA (100%)15 -=- 15. Fracus & Darwin feat. Cari Winter - I'll Be Ready.flac -=- CDDA (100%)16 -=- 16. Fracus & Darwin - Found A Groove.flac -=- CDDA (100%)17 -=- 17. Fracus & Darwin - Circle.flac -=- CDDA (100%)
Сводка 99,76% CDDA
243985108
Показать сообщения:    

Текущее время: 24-Сен 07:43

Часовой пояс: UTC - 1


Вы не можете начинать темы
Вы не можете отвечать на сообщения
Вы не можете редактировать свои сообщения
Вы не можете удалять свои сообщения
Вы не можете голосовать в опросах
Вы не можете прикреплять файлы к сообщениям
Вы не можете скачивать файлы

!ВНИМАНИЕ!
Сайт не предоставляет электронные версии произведений, а занимается лишь коллекционированием и каталогизацией ссылок, присылаемых и публикуемых на форуме нашими читателями. Если вы являетесь правообладателем какого-либо представленного материала и не желаете, чтобы ссылка на него находилась в нашем каталоге, свяжитесь с нами, и мы незамедлительно удалим ее. Файлы для обмена на трекере предоставлены пользователями сайта, и администрация не несет ответственности за их содержание. Просьба не заливать файлы, защищенные авторскими правами, а также файлы нелегального содержания!