Важное объявление!
У Нас Все раздачи мультитрекерные, при нуле пиров в релизах, можете смело вставать на закачку!
 
Автор Сообщение

HUNTER

Стаж:
4 года 5 месяцев
Сообщений:
60886

Репутация: 101

[+] [-]
Вне форума [Профиль] [ЛС]

Dougal & Gammer - First Order
Жанр: UK Hardcore
Носитель: CD
Страна-производитель диска (релиза): UK
Год издания: 2014
Издатель (лейбл): Hardcore Underground
Номер по каталогу: HUDSCD006
Аудиокодек: FLAC (*.flac)
Тип рипа: tracks+.cue
Битрейт аудио: lossless
Продолжительность: 05:03:30
Источник (релизер): Собственный рип
Наличие сканов в содержимом раздачи: нет

Треклист

CD1 - When Nobody Liked Us
01. United In Dance feat. Lisa Marie – Lift Me Above
02. Dougal & Gammer – Higher Than Heaven
03. Dougal & Gammer – Get Hype (Facelift)
04. Dougal & Gammer feat. Lisa Marie – Open Your Eyes
05. Dougal & Gammer – 3000 Cycles
06. Dougal & Gammer feat. Stefan & Jenna – Bathe In Your Tears
07. Dougal & Gammer feat. Jenna & MC Smiley – Ordinary People
08. Dougal & Gammer – Make Noise
09. Dougal & Gammer feat. Jenna – Paradise
10. Dougal & Gammer – The 6th Gate
11. Dougal & Gammer – What We Got
12. Dougal & Gammer – Fires In The Sky

CD2 - When Everybody Liked Us

01. Dougal & Gammer – Guitar Hero
02. Dougal & Gammer feat. Jenna – When I Close My Eyes
03. Dougal & Gammer feat. Niki Mak – All My Dreams
04. Dougal & Gammer – Rock This
05. Dougal & Gammer – The Tunnel
06. Dougal & Gammer – Horns Of Jericho
07. Dougal & Gammer feat. Jenna – All The Tears I've Cried
08. Dougal & Gammer feat. Jenna – Through The Darkness (Dougal & Gammer 2009 Remix)
09. United In Dance – 1234
10. Dougal & Gammer – Brainstorm
11. Dougal & Gammer – Fuck Me I'm Famous
12. Dougal & Gammer vs. Hixxy – Dark Skies
13. Dougal & Gammer feat. Jenna – Lose Me Forever
14. Dougal & Gammer vs. Technikore – Corruption For The Weekend

CD3 - When The People Who Used To Like Us Stopped Liking Us But Some New People Probably Like Us Now

01. Dougal & Gammer – Burn
02. Dougal & Gammer – Float Away
03. Dougal & Gammer feat. Hannah Faulkner – The One
04. Dougal & Gammer – Don't Leave Me
05. Dougal & Gammer – Fuck That Shit
06. Dougal & Gammer – Trust In Me
07. Dougal & Gammer feat. Niki Mak – Back Home
08. Dougal & Gammer – Your One
09. Dougal & Gammer feat. Hannah Faulkner – Knight In Shining Armour
10. Dougal & Gammer – Monster (Remaster)
11. Dougal & Gammer – Lifting Me Higher
12. Dougal & Gammer feat. Jerome – Domination
13. Dougal & Gammer feat. Niki Mak – Everytime I Hear Your Name

CD4 - Dougal & Gammer's Personal Favourites (Apart From One)

01. Dougal & Gammer – Burn
02. Dougal & Gammer – Float Away
03. Dougal & Gammer – Fuck That Shit
04. Dougal & Gammer feat. Hannah Faulkner – The One
05. Dougal & Gammer – Red 7
06. Dougal & Gammer – Monster (Ayobi Remix)
07. Dougal & Gammer – Monster (Remaster)
08. Dougal & Gammer – Trust In Me
09. Dougal & Gammer – Your One
10. Dougal & Gammer – Don't Leave Me
11. Dougal & Gammer feat. Niki Mak – Back Home
12. Dougal & Gammer feat. Jerome – Domination
13. United In Dance – 1234
14. Dougal & Gammer feat. Niki Mak – Everytime I Hear Your Name
15. Dougal & Gammer – Guitar Hero
16. Dougal & Gammer – Anybody Else But You
17. Dougal & Gammer – Models Are Ugly
18. Dougal & Gammer feat. Jenna & Whizzkid – All My Life (Facelift)
19. Hixxy vs. Dougal & Gammer – Phase To Phase
20. Dougal & Gammer – Don't Stop Go
21. Dougal & Gammer – This Is A Virus
22. Dougal & Gammer feat. Jenna – All The Tears I've Cried
23. Dougal & Gammer – Rock This
24. Dougal & Gammer – Horns Of Jericho
25. Dougal & Gammer – Wii Go Crazy
26. Dougal & Gammer feat. Jenna – When I Close My Eyes
27. Dougal & Gammer – Make Noise
28. Dougal & Gammer – Nobody Likes It
29. Dougal & Gammer – Fires In The Sky (Facelift)

Лог создания рипа

CD1 - When Nobody Liked Us
Exact Audio Copy V1.0 beta 3 from 29. August 2011
Отчёт EAC об извлечении, выполненном 31. декабря 2014, 0:02
Dougal & Gammer / First Order [CD1]
Дисковод: PIONEER DVD-RW DVR-220L Adapter: 0 ID: 0
Режим чтения : ДостоверностьИспользование точного потока : ДаОтключение кэша аудио : ДаИспользование указателей C2 : Нет
Коррекция смещения при чтении : 6Способность читать области Lead-in и Lead-out : НетЗаполнение пропущенных сэмплов тишиной : ДаУдаление блоков с тишиной в начале и конце : НетПри вычислениях CRC использовались нулевые сэмплы : ДаИнтерфейс : Встроенный Win32-интерфейс для Win NT/2000Обработка зазоров : Добавлено к предыдущему треку
Выходной формат : Пользовательский кодировщикВыбранный битрейт : 128 kBit/sКачество : ВысокийДобавление ID3-тега : НетУтилита сжатия : C:\Program Files (x86)\Exact Audio Copy\FLAC\FLAC.EXEДополнительные параметры : -V -8 -T "Genre=%genre%" -T "Artist=%artist%" -T "Title=%title%" -T "Album=%albumtitle%" -T "Date=%year%" -T "Tracknumber=%tracknr%" -T "Comment=%comment%" %source%
TOC извлечённого CD
Трек | Старт | Длительность | Начальный сектор | Конечный сектор --------------------------------------------------------------------- 1 | 0:00.00 | 6:42.68 | 0 | 30217 2 | 6:42.68 | 7:03.60 | 30218 | 62002 3 | 13:46.53 | 5:45.31 | 62003 | 87908 4 | 19:32.09 | 6:21.44 | 87909 | 116527 5 | 25:53.53 | 5:01.73 | 116528 | 139175 6 | 30:55.51 | 7:22.38 | 139176 | 172363 7 | 38:18.14 | 6:35.02 | 172364 | 201990 8 | 44:53.16 | 5:42.15 | 201991 | 227655 9 | 50:35.31 | 5:52.38 | 227656 | 254093 10 | 56:27.69 | 7:39.68 | 254094 | 288586 11 | 64:07.62 | 5:14.20 | 288587 | 312156 12 | 69:22.07 | 7:19.68 | 312157 | 345149
Трек 1
Имя файла D:\Random, Music\First Order\CD1\01. United In Dance feat. Lisa Marie - Lift Me Above.wav
Длина предзазора 0:00:02.00
Пиковый уровень 99.8 % Скорость извлечения 5.2 X Качество трека 100.0 % CRC теста F3B7B776 CRC копии F3B7B776 Копирование... OK
Трек 2
Имя файла D:\Random, Music\First Order\CD1\02. Dougal & Gammer - Higher Than Heaven.wav
Длина предзазора 0:00:02.00
Пиковый уровень 99.4 % Скорость извлечения 6.0 X Качество трека 100.0 % CRC теста 354040E8 CRC копии 354040E8 Копирование... OK
Трек 3
Имя файла D:\Random, Music\First Order\CD1\03. Dougal & Gammer - Get Hype (Facelift).wav
Длина предзазора 0:00:02.00
Пиковый уровень 99.8 % Скорость извлечения 6.5 X Качество трека 100.0 % CRC теста 63DAE792 CRC копии 63DAE792 Копирование... OK
Трек 4
Имя файла D:\Random, Music\First Order\CD1\04. Dougal & Gammer feat. Lisa Marie - Open Your Eyes.wav
Длина предзазора 0:00:02.00
Пиковый уровень 100.0 % Скорость извлечения 7.1 X Качество трека 100.0 % CRC теста 12168918 CRC копии 12168918 Копирование... OK
Трек 5
Имя файла D:\Random, Music\First Order\CD1\05. Dougal & Gammer - 3000 Cycles.wav
Длина предзазора 0:00:02.00
Пиковый уровень 99.4 % Скорость извлечения 7.3 X Качество трека 100.0 % CRC теста 22FDDDA6 CRC копии 22FDDDA6 Копирование... OK
Трек 6
Имя файла D:\Random, Music\First Order\CD1\06. Dougal & Gammer feat. Stefan B & Jenna - Bathe In Your Tears.wav
Длина предзазора 0:00:02.00
Пиковый уровень 99.4 % Скорость извлечения 8.1 X Качество трека 100.0 % CRC теста 25E1E9EA CRC копии 25E1E9EA Копирование... OK
Трек 7
Имя файла D:\Random, Music\First Order\CD1\07. Dougal & Gammer feat. Jenna & MC Smiley - Ordinary People.wav
Длина предзазора 0:00:02.00
Пиковый уровень 99.4 % Скорость извлечения 8.5 X Качество трека 100.0 % CRC теста 523CA98E CRC копии 523CA98E Копирование... OK
Трек 8
Имя файла D:\Random, Music\First Order\CD1\08. Dougal & Gammer - Make Noise.wav
Длина предзазора 0:00:02.00
Пиковый уровень 99.4 % Скорость извлечения 8.8 X Качество трека 100.0 % CRC теста A4D685AE CRC копии A4D685AE Копирование... OK
Трек 9
Имя файла D:\Random, Music\First Order\CD1\09. Dougal & Gammer feat. Jenna - Paradise.wav
Длина предзазора 0:00:02.00
Пиковый уровень 99.4 % Скорость извлечения 9.1 X Качество трека 100.0 % CRC теста 1C3D3605 CRC копии 1C3D3605 Копирование... OK
Трек 10
Имя файла D:\Random, Music\First Order\CD1\10. Dougal & Gammer - The 6th Gate.wav
Длина предзазора 0:00:02.00
Пиковый уровень 99.4 % Скорость извлечения 9.9 X Качество трека 100.0 % CRC теста A1194355 CRC копии A1194355 Копирование... OK
Трек 11
Имя файла D:\Random, Music\First Order\CD1\11. Dougal & Gammer - What We Got.wav
Длина предзазора 0:00:02.00
Пиковый уровень 99.8 % Скорость извлечения 9.9 X Качество трека 100.0 % CRC теста E904B1B3 CRC копии E904B1B3 Копирование... OK
Трек 12
Имя файла D:\Random, Music\First Order\CD1\12. Dougal & Gammer - Fires In The Sky.wav
Длина предзазора 0:00:02.00
Пиковый уровень 99.4 % Скорость извлечения 9.8 X Качество трека 99.9 % CRC теста EB9C6C93 CRC копии EB9C6C93 Копирование... OK
Ошибок не произошло
Конец отчёта
==== Контрольная сумма отчёта F26172DDB22FD8E17BE9E843047CCCD3029736C42E82A06F574F91B2E5428772 ====

CD2 - When Everybody Liked Us

Exact Audio Copy V1.0 beta 3 from 29. August 2011
Отчёт EAC об извлечении, выполненном 31. декабря 2014, 0:36
Dougal & Gammer / First Order [CD2]
Дисковод: PIONEER DVD-RW DVR-220L Adapter: 0 ID: 0
Режим чтения : ДостоверностьИспользование точного потока : ДаОтключение кэша аудио : ДаИспользование указателей C2 : Нет
Коррекция смещения при чтении : 6Способность читать области Lead-in и Lead-out : НетЗаполнение пропущенных сэмплов тишиной : ДаУдаление блоков с тишиной в начале и конце : НетПри вычислениях CRC использовались нулевые сэмплы : ДаИнтерфейс : Встроенный Win32-интерфейс для Win NT/2000Обработка зазоров : Добавлено к предыдущему треку
Выходной формат : Пользовательский кодировщикВыбранный битрейт : 128 kBit/sКачество : ВысокийДобавление ID3-тега : НетУтилита сжатия : C:\Program Files (x86)\Exact Audio Copy\FLAC\FLAC.EXEДополнительные параметры : -V -8 -T "Genre=%genre%" -T "Artist=%artist%" -T "Title=%title%" -T "Album=%albumtitle%" -T "Date=%year%" -T "Tracknumber=%tracknr%" -T "Comment=%comment%" %source%
TOC извлечённого CD
Трек | Старт | Длительность | Начальный сектор | Конечный сектор --------------------------------------------------------------------- 1 | 0:00.00 | 5:21.02 | 0 | 24076 2 | 5:21.02 | 6:09.32 | 24077 | 51783 3 | 11:30.34 | 4:59.60 | 51784 | 74268 4 | 16:30.19 | 6:11.02 | 74269 | 102095 5 | 22:41.21 | 5:08.17 | 102096 | 125212 6 | 27:49.38 | 4:47.18 | 125213 | 146755 7 | 32:36.56 | 5:44.47 | 146756 | 172602 8 | 38:21.28 | 5:43.62 | 172603 | 198389 9 | 44:05.15 | 4:54.48 | 198390 | 220487 10 | 48:59.63 | 5:40.62 | 220488 | 246049 11 | 54:40.50 | 4:40.56 | 246050 | 267105 12 | 59:21.31 | 5:53.15 | 267106 | 293595 13 | 65:14.46 | 6:32.63 | 293596 | 323058 14 | 71:47.34 | 6:23.71 | 323059 | 351854
Трек 1
Имя файла D:\Random, Music\First Order\CD2\01. Dougal & Gammer - Guitar Hero.wav
Длина предзазора 0:00:02.00
Пиковый уровень 100.0 % Скорость извлечения 4.6 X Качество трека 99.9 % CRC теста 04FD0DD3 CRC копии 04FD0DD3 Копирование... OK
Трек 2
Имя файла D:\Random, Music\First Order\CD2\02. Dougal & Gammer feat. Jenna - When I Close My Eyes.wav
Длина предзазора 0:00:02.00
Пиковый уровень 99.8 % Скорость извлечения 5.8 X Качество трека 100.0 % CRC теста AB11562C CRC копии AB11562C Копирование... OK
Трек 3
Имя файла D:\Random, Music\First Order\CD2\03. Dougal & Gammer feat. Niki Mak - All My Dreams.wav
Длина предзазора 0:00:02.00
Пиковый уровень 99.8 % Скорость извлечения 5.6 X Качество трека 99.9 % CRC теста 4BBC59D4 CRC копии 4BBC59D4 Копирование... OK
Трек 4
Имя файла D:\Random, Music\First Order\CD2\04. Dougal & Gammer - Rock This.wav
Длина предзазора 0:00:02.00
Пиковый уровень 99.8 % Скорость извлечения 6.9 X Качество трека 100.0 % CRC теста F7006C14 CRC копии F7006C14 Копирование... OK
Трек 5
Имя файла D:\Random, Music\First Order\CD2\05. Dougal & Gammer - The Tunnel.wav
Длина предзазора 0:00:02.00
Пиковый уровень 99.8 % Скорость извлечения 7.2 X Качество трека 100.0 % CRC теста 4FEA5613 CRC копии 4FEA5613 Копирование... OK
Трек 6
Имя файла D:\Random, Music\First Order\CD2\06. Dougal & Gammer - Horns Of Jericho.wav
Длина предзазора 0:00:02.00
Пиковый уровень 100.0 % Скорость извлечения 7.6 X Качество трека 100.0 % CRC теста 23C01D6B CRC копии 23C01D6B Копирование... OK
Трек 7
Имя файла D:\Random, Music\First Order\CD2\07. Dougal & Gammer feat. Jenna - All The Tears I've Cried.wav
Длина предзазора 0:00:02.00
Пиковый уровень 100.0 % Скорость извлечения 7.3 X Качество трека 99.9 % CRC теста 6C30F719 CRC копии 6C30F719 Копирование... OK
Трек 8
Имя файла D:\Random, Music\First Order\CD2\08. Mickey Skeedale feat. Jenna - Through The Darkness (Dougal & Gammer 2009 Remix).wav
Длина предзазора 0:00:02.00
Пиковый уровень 99.8 % Скорость извлечения 8.5 X Качество трека 100.0 % CRC теста E489A5E7 CRC копии E489A5E7 Копирование... OK
Трек 9
Имя файла D:\Random, Music\First Order\CD2\09. United In Dance - 1234.wav
Длина предзазора 0:00:02.00
Пиковый уровень 99.8 % Скорость извлечения 8.7 X Качество трека 100.0 % CRC теста D91F1843 CRC копии D91F1843 Копирование... OK
Трек 10
Имя файла D:\Random, Music\First Order\CD2\10. Dougal & Gammer - Brainstorm.wav
Длина предзазора 0:00:02.00
Пиковый уровень 99.8 % Скорость извлечения 9.1 X Качество трека 100.0 % CRC теста 3C6909E7 CRC копии 3C6909E7 Копирование... OK
Трек 11
Имя файла D:\Random, Music\First Order\CD2\11. Dougal & Gammer - Fuck Me I'm Famous.wav
Длина предзазора 0:00:02.00
Пиковый уровень 99.8 % Скорость извлечения 9.2 X Качество трека 100.0 % CRC теста 21EE44EF CRC копии 21EE44EF Копирование... OK
Трек 12
Имя файла D:\Random, Music\First Order\CD2\12. Dougal & Gammer vs. Hixxy - Dark Skies.wav
Длина предзазора 0:00:02.00
Пиковый уровень 99.8 % Скорость извлечения 8.9 X Качество трека 99.9 % CRC теста 50D334DA CRC копии 50D334DA Копирование... OK
Трек 13
Имя файла D:\Random, Music\First Order\CD2\13. Dougal & Gammer feat. Jenna - Lose Me Forever.wav
Длина предзазора 0:00:02.00
Пиковый уровень 99.8 % Скорость извлечения 10.4 X Качество трека 100.0 % CRC теста 5172339C CRC копии 5172339C Копирование... OK
Трек 14
Имя файла D:\Random, Music\First Order\CD2\14. Dougal & Gammer vs. Technikore - Corruption For The Weekend.wav
Длина предзазора 0:00:02.00
Пиковый уровень 99.8 % Скорость извлечения 10.7 X Качество трека 100.0 % CRC теста EEC950AC CRC копии EEC950AC Копирование... OK
Ошибок не произошло
Конец отчёта
==== Контрольная сумма отчёта 46C1C485ACBA5AF15D318EAB3346BFF14D2559E22FFC87DB5DAC64A9D9B62038 ====

CD3 - When The People Who Used To Like Us Stopped Liking Us But Some New People Probably Like Us Now

Exact Audio Copy V1.0 beta 3 from 29. August 2011
Отчёт EAC об извлечении, выполненном 31. декабря 2014, 15:19
Dougal & Gammer / First Order [CD3]
Дисковод: PIONEER DVD-RW DVR-220L Adapter: 0 ID: 0
Режим чтения : ДостоверностьИспользование точного потока : ДаОтключение кэша аудио : ДаИспользование указателей C2 : Нет
Коррекция смещения при чтении : 6Способность читать области Lead-in и Lead-out : НетЗаполнение пропущенных сэмплов тишиной : ДаУдаление блоков с тишиной в начале и конце : НетПри вычислениях CRC использовались нулевые сэмплы : ДаИнтерфейс : Встроенный Win32-интерфейс для Win NT/2000Обработка зазоров : Добавлено к предыдущему треку
Выходной формат : Пользовательский кодировщикВыбранный битрейт : 128 kBit/sКачество : ВысокийДобавление ID3-тега : НетУтилита сжатия : C:\Program Files (x86)\Exact Audio Copy\FLAC\FLAC.EXEДополнительные параметры : -V -8 -T "Genre=%genre%" -T "Artist=%artist%" -T "Title=%title%" -T "Album=%albumtitle%" -T "Date=%year%" -T "Tracknumber=%tracknr%" -T "Comment=%comment%" %source%
TOC извлечённого CD
Трек | Старт | Длительность | Начальный сектор | Конечный сектор --------------------------------------------------------------------- 1 | 0:00.00 | 4:42.02 | 0 | 21151 2 | 4:42.02 | 6:18.56 | 21152 | 49557 3 | 11:00.58 | 6:03.31 | 49558 | 76813 4 | 17:04.14 | 5:57.57 | 76814 | 103645 5 | 23:01.71 | 6:14.53 | 103646 | 131748 6 | 29:16.49 | 6:36.35 | 131749 | 161483 7 | 35:53.09 | 6:14.53 | 161484 | 189586 8 | 42:07.62 | 5:59.32 | 189587 | 216543 9 | 48:07.19 | 6:26.00 | 216544 | 245493 10 | 54:33.19 | 4:54.19 | 245494 | 267562 11 | 59:27.38 | 5:57.13 | 267563 | 294350 12 | 65:24.51 | 5:47.23 | 294351 | 320398 13 | 71:11.74 | 5:21.67 | 320399 | 344540
Трек 1
Имя файла D:\Random, Music\First Order\CD3\01. Dougal & Gammer - Burn.wav
Длина предзазора 0:00:02.00
Пиковый уровень 100.0 % Скорость извлечения 4.9 X Качество трека 100.0 % CRC теста 1497767F CRC копии 1497767F Копирование... OK
Трек 2
Имя файла D:\Random, Music\First Order\CD3\02. Dougal & Gammer - Float Away.wav
Длина предзазора 0:00:02.00
Пиковый уровень 100.0 % Скорость извлечения 5.7 X Качество трека 100.0 % CRC теста 624514A1 CRC копии 624514A1 Копирование... OK
Трек 3
Имя файла D:\Random, Music\First Order\CD3\03. Dougal & Gammer feat. Hannah Faulkner - The One.wav
Длина предзазора 0:00:02.00
Пиковый уровень 99.3 % Скорость извлечения 6.2 X Качество трека 100.0 % CRC теста E0D2282B CRC копии E0D2282B Копирование... OK
Трек 4
Имя файла D:\Random, Music\First Order\CD3\04. Dougal & Gammer - Don't Leave Me.wav
Длина предзазора 0:00:02.00
Пиковый уровень 100.0 % Скорость извлечения 6.8 X Качество трека 100.0 % CRC теста DCBDD828 CRC копии DCBDD828 Копирование... OK
Трек 5
Имя файла D:\Random, Music\First Order\CD3\05. Dougal & Gammer - Fuck That Shit.wav
Длина предзазора 0:00:02.00
Пиковый уровень 99.8 % Скорость извлечения 7.3 X Качество трека 100.0 % CRC теста 24E4AC37 CRC копии 24E4AC37 Копирование... OK
Трек 6
Имя файла D:\Random, Music\First Order\CD3\06. Dougal & Gammer - Trust In Me.wav
Длина предзазора 0:00:02.00
Пиковый уровень 99.8 % Скорость извлечения 7.9 X Качество трека 100.0 % CRC теста B6B2D5A2 CRC копии B6B2D5A2 Копирование... OK
Трек 7
Имя файла D:\Random, Music\First Order\CD3\07. Dougal & Gammer feat. Niki Mak - Back Home.wav
Длина предзазора 0:00:02.00
Пиковый уровень 99.8 % Скорость извлечения 8.2 X Качество трека 100.0 % CRC теста BC751E32 CRC копии BC751E32 Копирование... OK
Трек 8
Имя файла D:\Random, Music\First Order\CD3\08. Dougal & Gammer - Your One.wav
Длина предзазора 0:00:02.00
Пиковый уровень 99.8 % Скорость извлечения 8.6 X Качество трека 100.0 % CRC теста 5CD73B51 CRC копии 5CD73B51 Копирование... OK
Трек 9
Имя файла D:\Random, Music\First Order\CD3\09. Dougal & Gammer feat. Hannah Faulkner - Knight In Shining Armour.wav
Длина предзазора 0:00:02.00
Пиковый уровень 99.8 % Скорость извлечения 9.1 X Качество трека 100.0 % CRC теста 9729C428 CRC копии 9729C428 Копирование... OK
Трек 10
Имя файла D:\Random, Music\First Order\CD3\10. Dougal & Gammer - Monster (Remaster).wav
Длина предзазора 0:00:02.00
Пиковый уровень 100.0 % Скорость извлечения 9.3 X Качество трека 100.0 % CRC теста D5D7633D CRC копии D5D7633D Копирование... OK
Трек 11
Имя файла D:\Random, Music\First Order\CD3\11. Dougal & Gammer - Lifting Me Higher.wav
Длина предзазора 0:00:02.00
Пиковый уровень 99.8 % Скорость извлечения 9.7 X Качество трека 100.0 % CRC теста 0DCE27D9 CRC копии 0DCE27D9 Копирование... OK
Трек 12
Имя файла D:\Random, Music\First Order\CD3\12. Dougal & Gammer feat. Jerome - Domination.wav
Длина предзазора 0:00:02.00
Пиковый уровень 99.8 % Скорость извлечения 10.2 X Качество трека 100.0 % CRC теста 3212C449 CRC копии 3212C449 Копирование... OK
Трек 13
Имя файла D:\Random, Music\First Order\CD3\13. Dougal & Gammer feat. Niki Mak - Everytime I Hear Your Name.wav
Длина предзазора 0:00:02.00
Пиковый уровень 99.8 % Скорость извлечения 10.4 X Качество трека 100.0 % CRC теста 95B54760 CRC копии 95B54760 Копирование... OK
Ошибок не произошло
Конец отчёта
==== Контрольная сумма отчёта 159D4105BC767683BE66F2F8B06A1AB5E682EE664357E33A30D2915202E719F5 ====

CD4 - Dougal & Gammer's Personal Favourites (Apart From One)

Exact Audio Copy V1.0 beta 3 from 29. August 2011
Отчёт EAC об извлечении, выполненном 31. декабря 2014, 17:16
Dougal & Gammer / First Order [CD4]
Дисковод: PIONEER DVD-RW DVR-220L Adapter: 0 ID: 0
Режим чтения : ДостоверностьИспользование точного потока : ДаОтключение кэша аудио : ДаИспользование указателей C2 : Нет
Коррекция смещения при чтении : 6Способность читать области Lead-in и Lead-out : НетЗаполнение пропущенных сэмплов тишиной : ДаУдаление блоков с тишиной в начале и конце : НетПри вычислениях CRC использовались нулевые сэмплы : ДаИнтерфейс : Встроенный Win32-интерфейс для Win NT/2000Обработка зазоров : Добавлено к предыдущему треку
Выходной формат : Пользовательский кодировщикВыбранный битрейт : 128 kBit/sКачество : ВысокийДобавление ID3-тега : НетУтилита сжатия : C:\Program Files (x86)\Exact Audio Copy\FLAC\FLAC.EXEДополнительные параметры : -V -8 -T "Genre=%genre%" -T "Artist=%artist%" -T "Title=%title%" -T "Album=%albumtitle%" -T "Date=%year%" -T "Tracknumber=%tracknr%" -T "Comment=%comment%" %source%
TOC извлечённого CD
Трек | Старт | Длительность | Начальный сектор | Конечный сектор --------------------------------------------------------------------- 1 | 0:00.00 | 3:28.72 | 0 | 15671 2 | 3:28.72 | 4:08.35 | 15672 | 34306 3 | 7:37.32 | 2:24.00 | 34307 | 45106 4 | 10:01.32 | 4:19.57 | 45107 | 64588 5 | 14:21.14 | 3:20.37 | 64589 | 79625 6 | 17:41.51 | 0:25.31 | 79626 | 81531 7 | 18:07.07 | 0:32.09 | 81532 | 83940 8 | 18:39.16 | 2:06.00 | 83941 | 93390 9 | 20:45.16 | 4:19.59 | 93391 | 112874 10 | 25:05.00 | 3:45.66 | 112875 | 129815 11 | 28:50.66 | 1:52.73 | 129816 | 138288 12 | 30:43.64 | 2:32.34 | 138289 | 149722 13 | 33:16.23 | 1:47.24 | 149723 | 157771 14 | 35:03.47 | 1:58.45 | 157772 | 166666 15 | 37:02.17 | 1:52.71 | 166667 | 175137 16 | 38:55.13 | 1:24.53 | 175138 | 181490 17 | 40:19.66 | 1:52.70 | 181491 | 189960 18 | 42:12.61 | 3:57.15 | 189961 | 207750 19 | 46:10.01 | 2:36.54 | 207751 | 219504 20 | 48:46.55 | 1:09.13 | 219505 | 224692 21 | 49:55.68 | 1:30.27 | 224693 | 231469 22 | 51:26.20 | 2:04.18 | 231470 | 240787 23 | 53:30.38 | 2:01.32 | 240788 | 249894 24 | 55:31.70 | 1:38.62 | 249895 | 257306 25 | 57:10.57 | 1:19.05 | 257307 | 263236 26 | 58:29.62 | 2:32.36 | 263237 | 274672 27 | 61:02.23 | 4:07.05 | 274673 | 293202 28 | 65:09.28 | 2:56.36 | 293203 | 306438 29 | 68:05.64 | 3:57.13 | 306439 | 324226
Трек 1
Имя файла D:\Random, Music\First Order\CD4\01. Dougal & Gammer - Burn.wav
Длина предзазора 0:00:02.00
Пиковый уровень 99.3 % Скорость извлечения 4.4 X Качество трека 100.0 % CRC теста 195C558E CRC копии 195C558E Копирование... OK
Трек 2
Имя файла D:\Random, Music\First Order\CD4\02. Dougal & Gammer - Float Away.wav
Пиковый уровень 99.3 % Скорость извлечения 4.9 X Качество трека 100.0 % CRC теста 74B8E373 CRC копии 74B8E373 Копирование... OK
Трек 3
Имя файла D:\Random, Music\First Order\CD4\03. Dougal & Gammer - Fuck That Shit.wav
Пиковый уровень 99.3 % Скорость извлечения 4.7 X Качество трека 100.0 % CRC теста 82836E2C CRC копии 82836E2C Копирование... OK
Трек 4
Имя файла D:\Random, Music\First Order\CD4\04. Dougal & Gammer feat. Hannah Faulkner - The One.wav
Пиковый уровень 99.3 % Скорость извлечения 5.6 X Качество трека 100.0 % CRC теста FD2DB6BA CRC копии FD2DB6BA Копирование... OK
Трек 5
Имя файла D:\Random, Music\First Order\CD4\05. Dougal & Gammer - Red 7.wav
Пиковый уровень 99.3 % Скорость извлечения 4.9 X Качество трека 99.9 % CRC теста EF15C9F9 CRC копии EF15C9F9 Копирование... OK
Трек 6
Имя файла D:\Random, Music\First Order\CD4\06. Dougal & Gammer - Monster (Ayobi Remix).wav
Пиковый уровень 99.3 % Скорость извлечения 2.7 X Качество трека 100.0 % CRC теста 3639D940 CRC копии 3639D940 Копирование... OK
Трек 7
Имя файла D:\Random, Music\First Order\CD4\07. Dougal & Gammer - Monster (Remaster).wav
Пиковый уровень 99.3 % Скорость извлечения 3.1 X Качество трека 100.0 % CRC теста 146C34F6 CRC копии 146C34F6 Копирование... OK
Трек 8
Имя файла D:\Random, Music\First Order\CD4\08. Dougal & Gammer - Trust In Me.wav
Пиковый уровень 99.3 % Скорость извлечения 5.6 X Качество трека 100.0 % CRC теста B3E07711 CRC копии B3E07711 Копирование... OK
Трек 9
Имя файла D:\Random, Music\First Order\CD4\09. Dougal & Gammer - Your One.wav
Пиковый уровень 99.3 % Скорость извлечения 6.5 X Качество трека 100.0 % CRC теста 6C2E096E CRC копии 6C2E096E Копирование... OK
Трек 10
Имя файла D:\Random, Music\First Order\CD4\10. Dougal & Gammer - Don't Leave Me.wav
Пиковый уровень 99.3 % Скорость извлечения 6.8 X Качество трека 100.0 % CRC теста 001AC7AC CRC копии 001AC7AC Копирование... OK
Трек 11
Имя файла D:\Random, Music\First Order\CD4\11. Dougal & Gammer feat. Niki Mak - Back Home.wav
Пиковый уровень 99.3 % Скорость извлечения 6.1 X Качество трека 100.0 % CRC теста 94402717 CRC копии 94402717 Копирование... OK
Трек 12
Имя файла D:\Random, Music\First Order\CD4\12. Dougal & Gammer feat. Jerome - Domination.wav
Пиковый уровень 94.0 % Скорость извлечения 6.7 X Качество трека 100.0 % CRC теста 8167314C CRC копии 8167314C Копирование... OK
Трек 13
Имя файла D:\Random, Music\First Order\CD4\13. United In Dance - 1234.wav
Пиковый уровень 99.3 % Скорость извлечения 6.2 X Качество трека 100.0 % CRC теста C7876A33 CRC копии C7876A33 Копирование... OK
Трек 14
Имя файла D:\Random, Music\First Order\CD4\14. Dougal & Gammer feat. Niki Mak - Everytime I Hear Your Name.wav
Пиковый уровень 99.3 % Скорость извлечения 6.5 X Качество трека 100.0 % CRC теста 5F405E86 CRC копии 5F405E86 Копирование... OK
Трек 15
Имя файла D:\Random, Music\First Order\CD4\15. Dougal & Gammer - Guitar Hero.wav
Пиковый уровень 99.3 % Скорость извлечения 6.7 X Качество трека 100.0 % CRC теста BEBF13E3 CRC копии BEBF13E3 Копирование... OK
Трек 16
Имя файла D:\Random, Music\First Order\CD4\16. Dougal & Gammer - Anybody Else But You.wav
Пиковый уровень 99.3 % Скорость извлечения 6.1 X Качество трека 100.0 % CRC теста 5E9479B9 CRC копии 5E9479B9 Копирование... OK
Трек 17
Имя файла D:\Random, Music\First Order\CD4\17. Dougal & Gammer - Models Are Ugly.wav
Пиковый уровень 99.3 % Скорость извлечения 6.9 X Качество трека 100.0 % CRC теста 4A217A09 CRC копии 4A217A09 Копирование... OK
Трек 18
Имя файла D:\Random, Music\First Order\CD4\18. Dougal & Gammer feat. Jenna & Whizzkid - All My Life (Facelift).wav
Пиковый уровень 99.3 % Скорость извлечения 8.0 X Качество трека 100.0 % CRC теста D9776A97 CRC копии D9776A97 Копирование... OK
Трек 19
Имя файла D:\Random, Music\First Order\CD4\19. Hixxy vs. Dougal & Gammer - Phase To Phase.wav
Пиковый уровень 99.3 % Скорость извлечения 6.3 X Качество трека 99.9 % CRC теста 13F57D0A CRC копии 13F57D0A Копирование... OK
Трек 20
Имя файла D:\Random, Music\First Order\CD4\20. Dougal & Gammer - Don't Stop Go.wav
Пиковый уровень 99.3 % Скорость извлечения 6.1 X Качество трека 100.0 % CRC теста E809961A CRC копии E809961A Копирование... OK
Трек 21
Имя файла D:\Random, Music\First Order\CD4\21. Dougal & Gammer - This Is A Virus.wav
Пиковый уровень 99.3 % Скорость извлечения 6.9 X Качество трека 100.0 % CRC теста D7BD9C0D CRC копии D7BD9C0D Копирование... OK
Трек 22
Имя файла D:\Random, Music\First Order\CD4\22. Dougal & Gammer feat. Jenna - All The Tears I've Cried.wav
Пиковый уровень 99.3 % Скорость извлечения 7.5 X Качество трека 100.0 % CRC теста 78D4F83E CRC копии 78D4F83E Копирование... OK
Трек 23
Имя файла D:\Random, Music\First Order\CD4\23. Dougal & Gammer - Rock This.wav
Пиковый уровень 99.3 % Скорость извлечения 7.5 X Качество трека 100.0 % CRC теста AC000E06 CRC копии AC000E06 Копирование... OK
Трек 24
Имя файла D:\Random, Music\First Order\CD4\24. Dougal & Gammer - Horns Of Jericho.wav
Пиковый уровень 99.3 % Скорость извлечения 7.0 X Качество трека 100.0 % CRC теста DB0930F1 CRC копии DB0930F1 Копирование... OK
Трек 25
Имя файла D:\Random, Music\First Order\CD4\25. Dougal & Gammer - Wii Go Crazy.wav
Пиковый уровень 99.3 % Скорость извлечения 6.7 X Качество трека 100.0 % CRC теста FF1B3CC1 CRC копии FF1B3CC1 Копирование... OK
Трек 26
Имя файла D:\Random, Music\First Order\CD4\26. Dougal & Gammer feat. Jenna - When I Close My Eyes.wav
Пиковый уровень 99.3 % Скорость извлечения 8.3 X Качество трека 100.0 % CRC теста 022A46CA CRC копии 022A46CA Копирование... OK
Трек 27
Имя файла D:\Random, Music\First Order\CD4\27. Dougal & Gammer - Make Noise.wav
Пиковый уровень 99.3 % Скорость извлечения 9.1 X Качество трека 100.0 % CRC теста 3728C5A7 CRC копии 3728C5A7 Копирование... OK
Трек 28
Имя файла D:\Random, Music\First Order\CD4\28. Dougal & Gammer - Nobody Likes It.wav
Пиковый уровень 94.0 % Скорость извлечения 8.7 X Качество трека 100.0 % CRC теста 538E31F2 CRC копии 538E31F2 Копирование... OK
Трек 29
Имя файла D:\Random, Music\First Order\CD4\29. Dougal & Gammer - Fires In The Sky (Facelift).wav
Пиковый уровень 94.1 % Скорость извлечения 9.5 X Качество трека 100.0 % CRC теста 8E93E02F CRC копии 8E93E02F Копирование... OK
Ошибок не произошло
Конец отчёта
==== Контрольная сумма отчёта A7A21E60C90C1B5D896C5AD879C4904CDB4F5627432B711602A0C06F29E238E4 ====

Содержание индексной карты (.CUE)

CD1 - When Nobody Liked Us
REM DATE 2014REM DISCID B411FA0CREM COMMENT "ExactAudioCopy v1.0b3"PERFORMER " Dougal & Gammer"TITLE " First Order [CD1]"FILE "01. United In Dance feat. Lisa Marie - Lift Me Above.wav" WAVE TRACK 01 AUDIO TITLE "Lift Me Above" PERFORMER "United In Dance feat. Lisa Marie" INDEX 01 00:00:00 TRACK 02 AUDIO TITLE "Higher Than Heaven" PERFORMER "Dougal & Gammer" INDEX 00 06:40:68FILE "02. Dougal & Gammer - Higher Than Heaven.wav" WAVE INDEX 01 00:00:00 TRACK 03 AUDIO TITLE "Get Hype (Facelift)" PERFORMER "Dougal & Gammer" INDEX 00 07:01:60FILE "03. Dougal & Gammer - Get Hype (Facelift).wav" WAVE INDEX 01 00:00:00 TRACK 04 AUDIO TITLE "Open Your Eyes" PERFORMER "Dougal & Gammer feat. Lisa Marie" INDEX 00 05:43:31FILE "04. Dougal & Gammer feat. Lisa Marie - Open Your Eyes.wav" WAVE INDEX 01 00:00:00 TRACK 05 AUDIO TITLE "3000 Cycles" PERFORMER "Dougal & Gammer" INDEX 00 06:19:44FILE "05. Dougal & Gammer - 3000 Cycles.wav" WAVE INDEX 01 00:00:00 TRACK 06 AUDIO TITLE "Bathe In Your Tears" PERFORMER "Dougal & Gammer feat. Stefan B & Jenna" INDEX 00 04:59:73FILE "06. Dougal & Gammer feat. Stefan B & Jenna - Bathe In Your Tears.wav" WAVE INDEX 01 00:00:00 TRACK 07 AUDIO TITLE "Ordinary People" PERFORMER "Dougal & Gammer feat. Jenna & MC Smiley" INDEX 00 07:20:38FILE "07. Dougal & Gammer feat. Jenna & MC Smiley - Ordinary People.wav" WAVE INDEX 01 00:00:00 TRACK 08 AUDIO TITLE "Make Noise" PERFORMER "Dougal & Gammer" INDEX 00 06:33:02FILE "08. Dougal & Gammer - Make Noise.wav" WAVE INDEX 01 00:00:00 TRACK 09 AUDIO TITLE "Paradise" PERFORMER "Dougal & Gammer feat. Jenna" INDEX 00 05:40:15FILE "09. Dougal & Gammer feat. Jenna - Paradise.wav" WAVE INDEX 01 00:00:00 TRACK 10 AUDIO TITLE "The 6th Gate" PERFORMER "Dougal & Gammer" INDEX 00 05:50:38FILE "10. Dougal & Gammer - The 6th Gate.wav" WAVE INDEX 01 00:00:00 TRACK 11 AUDIO TITLE "What We Got" PERFORMER "Dougal & Gammer" INDEX 00 07:37:68FILE "11. Dougal & Gammer - What We Got.wav" WAVE INDEX 01 00:00:00 TRACK 12 AUDIO TITLE "Fires In The Sky" PERFORMER "Dougal & Gammer" INDEX 00 05:12:20FILE "12. Dougal & Gammer - Fires In The Sky.wav" WAVE INDEX 01 00:00:00

CD2 - When Everybody Liked Us

REM DATE 2014REM DISCID D012530EREM COMMENT "ExactAudioCopy v1.0b3"PERFORMER " Dougal & Gammer"TITLE " First Order [CD2]"FILE "01. Dougal & Gammer - Guitar Hero.wav" WAVE TRACK 01 AUDIO TITLE "Guitar Hero" PERFORMER "Dougal & Gammer" INDEX 01 00:00:00 TRACK 02 AUDIO TITLE "When I Close My Eyes" PERFORMER "Dougal & Gammer feat. Jenna" INDEX 00 05:19:02FILE "02. Dougal & Gammer feat. Jenna - When I Close My Eyes.wav" WAVE INDEX 01 00:00:00 TRACK 03 AUDIO TITLE "All My Dreams" PERFORMER "Dougal & Gammer feat. Niki Mak" INDEX 00 06:07:32FILE "03. Dougal & Gammer feat. Niki Mak - All My Dreams.wav" WAVE INDEX 01 00:00:00 TRACK 04 AUDIO TITLE "Rock This" PERFORMER "Dougal & Gammer" INDEX 00 04:57:60FILE "04. Dougal & Gammer - Rock This.wav" WAVE INDEX 01 00:00:00 TRACK 05 AUDIO TITLE "The Tunnel" PERFORMER "Dougal & Gammer" INDEX 00 06:09:02FILE "05. Dougal & Gammer - The Tunnel.wav" WAVE INDEX 01 00:00:00 TRACK 06 AUDIO TITLE "Horns Of Jericho" PERFORMER "Dougal & Gammer" INDEX 00 05:06:17FILE "06. Dougal & Gammer - Horns Of Jericho.wav" WAVE INDEX 01 00:00:00 TRACK 07 AUDIO TITLE "All The Tears I've Cried" PERFORMER "Dougal & Gammer feat. Jenna" INDEX 00 04:45:18FILE "07. Dougal & Gammer feat. Jenna - All The Tears I've Cried.wav" WAVE INDEX 01 00:00:00 TRACK 08 AUDIO TITLE "Through The Darkness (Dougal & Gammer 2009 Remix)" PERFORMER "Mickey Skeedale feat. Jenna" INDEX 00 05:42:47FILE "08. Mickey Skeedale feat. Jenna - Through The Darkness (Dougal & Gammer 2009 Remix).wav" WAVE INDEX 01 00:00:00 TRACK 09 AUDIO TITLE "1234" PERFORMER "United In Dance" INDEX 00 05:41:62FILE "09. United In Dance - 1234.wav" WAVE INDEX 01 00:00:00 TRACK 10 AUDIO TITLE "Brainstorm" PERFORMER "Dougal & Gammer" INDEX 00 04:52:48FILE "10. Dougal & Gammer - Brainstorm.wav" WAVE INDEX 01 00:00:00 TRACK 11 AUDIO TITLE "Fuck Me I'm Famous" PERFORMER "Dougal & Gammer" INDEX 00 05:38:62FILE "11. Dougal & Gammer - Fuck Me I'm Famous.wav" WAVE INDEX 01 00:00:00 TRACK 12 AUDIO TITLE "Dark Skies" PERFORMER "Dougal & Gammer vs. Hixxy" INDEX 00 04:38:56FILE "12. Dougal & Gammer vs. Hixxy - Dark Skies.wav" WAVE INDEX 01 00:00:00 TRACK 13 AUDIO TITLE "Lose Me Forever" PERFORMER "Dougal & Gammer feat. Jenna" INDEX 00 05:51:15FILE "13. Dougal & Gammer feat. Jenna - Lose Me Forever.wav" WAVE INDEX 01 00:00:00 TRACK 14 AUDIO TITLE "Corruption For The Weekend" PERFORMER "Dougal & Gammer vs. Technikore" INDEX 00 06:30:63FILE "14. Dougal & Gammer vs. Technikore - Corruption For The Weekend.wav" WAVE INDEX 01 00:00:00

CD3 - When The People Who Used To Like Us Stopped Liking Us But Some New People Probably Like Us Now

REM DATE 2014REM DISCID D111F10DREM COMMENT "ExactAudioCopy v1.0b3"PERFORMER " Dougal & Gammer"TITLE " First Order [CD3]"FILE "01. Dougal & Gammer - Burn.wav" WAVE TRACK 01 AUDIO TITLE "Burn" PERFORMER "Dougal & Gammer" INDEX 01 00:00:00 TRACK 02 AUDIO TITLE "Float Away" PERFORMER "Dougal & Gammer" INDEX 00 04:40:02FILE "02. Dougal & Gammer - Float Away.wav" WAVE INDEX 01 00:00:00 TRACK 03 AUDIO TITLE "The One" PERFORMER "Dougal & Gammer feat. Hannah Faulkner" INDEX 00 06:16:56FILE "03. Dougal & Gammer feat. Hannah Faulkner - The One.wav" WAVE INDEX 01 00:00:00 TRACK 04 AUDIO TITLE "Don't Leave Me" PERFORMER "Dougal & Gammer" INDEX 00 06:01:31FILE "04. Dougal & Gammer - Don't Leave Me.wav" WAVE INDEX 01 00:00:00 TRACK 05 AUDIO TITLE "Fuck That Shit" PERFORMER "Dougal & Gammer" INDEX 00 05:55:57FILE "05. Dougal & Gammer - Fuck That Shit.wav" WAVE INDEX 01 00:00:00 TRACK 06 AUDIO TITLE "Trust In Me" PERFORMER "Dougal & Gammer" INDEX 00 06:12:53FILE "06. Dougal & Gammer - Trust In Me.wav" WAVE INDEX 01 00:00:00 TRACK 07 AUDIO TITLE "Back Home" PERFORMER "Dougal & Gammer feat. Niki Mak" INDEX 00 06:34:35FILE "07. Dougal & Gammer feat. Niki Mak - Back Home.wav" WAVE INDEX 01 00:00:00 TRACK 08 AUDIO TITLE "Your One" PERFORMER "Dougal & Gammer" INDEX 00 06:12:53FILE "08. Dougal & Gammer - Your One.wav" WAVE INDEX 01 00:00:00 TRACK 09 AUDIO TITLE "Knight In Shining Armour" PERFORMER "Dougal & Gammer feat. Hannah Faulkner" INDEX 00 05:57:32FILE "09. Dougal & Gammer feat. Hannah Faulkner - Knight In Shining Armour.wav" WAVE INDEX 01 00:00:00 TRACK 10 AUDIO TITLE "Monster (Remaster)" PERFORMER "Dougal & Gammer" INDEX 00 06:24:00FILE "10. Dougal & Gammer - Monster (Remaster).wav" WAVE INDEX 01 00:00:00 TRACK 11 AUDIO TITLE "Lifting Me Higher" PERFORMER "Dougal & Gammer" INDEX 00 04:52:19FILE "11. Dougal & Gammer - Lifting Me Higher.wav" WAVE INDEX 01 00:00:00 TRACK 12 AUDIO TITLE "Domination" PERFORMER "Dougal & Gammer feat. Jerome" INDEX 00 05:55:13FILE "12. Dougal & Gammer feat. Jerome - Domination.wav" WAVE INDEX 01 00:00:00 TRACK 13 AUDIO TITLE "Everytime I Hear Your Name" PERFORMER "Dougal & Gammer feat. Niki Mak" INDEX 00 05:45:23FILE "13. Dougal & Gammer feat. Niki Mak - Everytime I Hear Your Name.wav" WAVE INDEX 01 00:00:00

CD4 - Dougal & Gammer's Personal Favourites (Apart From One)

REM DATE 2014REM DISCID 9310E31DREM COMMENT "ExactAudioCopy v1.0b3"PERFORMER " Dougal & Gammer"TITLE " First Order [CD4]"FILE "01. Dougal & Gammer - Burn.wav" WAVE TRACK 01 AUDIO TITLE "Burn" PERFORMER "Dougal & Gammer" INDEX 01 00:00:00FILE "02. Dougal & Gammer - Float Away.wav" WAVE TRACK 02 AUDIO TITLE "Float Away" PERFORMER "Dougal & Gammer" INDEX 01 00:00:00FILE "03. Dougal & Gammer - Fuck That Shit.wav" WAVE TRACK 03 AUDIO TITLE "Fuck That Shit" PERFORMER "Dougal & Gammer" INDEX 01 00:00:00FILE "04. Dougal & Gammer feat. Hannah Faulkner - The One.wav" WAVE TRACK 04 AUDIO TITLE "The One" PERFORMER "Dougal & Gammer feat. Hannah Faulkner" INDEX 01 00:00:00FILE "05. Dougal & Gammer - Red 7.wav" WAVE TRACK 05 AUDIO TITLE "Red 7" PERFORMER "Dougal & Gammer" INDEX 01 00:00:00FILE "06. Dougal & Gammer - Monster (Ayobi Remix).wav" WAVE TRACK 06 AUDIO TITLE "Monster (Ayobi Remix)" PERFORMER "Dougal & Gammer" INDEX 01 00:00:00FILE "07. Dougal & Gammer - Monster (Remaster).wav" WAVE TRACK 07 AUDIO TITLE "Monster (Remaster)" PERFORMER "Dougal & Gammer" INDEX 01 00:00:00FILE "08. Dougal & Gammer - Trust In Me.wav" WAVE TRACK 08 AUDIO TITLE "Trust In Me" PERFORMER "Dougal & Gammer" INDEX 01 00:00:00FILE "09. Dougal & Gammer - Your One.wav" WAVE TRACK 09 AUDIO TITLE "Your One" PERFORMER "Dougal & Gammer" INDEX 01 00:00:00FILE "10. Dougal & Gammer - Don't Leave Me.wav" WAVE TRACK 10 AUDIO TITLE "Don't Leave Me" PERFORMER "Dougal & Gammer" INDEX 01 00:00:00FILE "11. Dougal & Gammer feat. Niki Mak - Back Home.wav" WAVE TRACK 11 AUDIO TITLE "Back Home" PERFORMER "Dougal & Gammer feat. Niki Mak" INDEX 01 00:00:00FILE "12. Dougal & Gammer feat. Jerome - Domination.wav" WAVE TRACK 12 AUDIO TITLE "Domination" PERFORMER "Dougal & Gammer feat. Jerome" INDEX 01 00:00:00FILE "13. United In Dance - 1234.wav" WAVE TRACK 13 AUDIO TITLE "1234" PERFORMER "United In Dance" INDEX 01 00:00:00FILE "14. Dougal & Gammer feat. Niki Mak - Everytime I Hear Your Name.wav" WAVE TRACK 14 AUDIO TITLE "Everytime I Hear Your Name" PERFORMER "Dougal & Gammer feat. Niki Mak" INDEX 01 00:00:00FILE "15. Dougal & Gammer - Guitar Hero.wav" WAVE TRACK 15 AUDIO TITLE "Guitar Hero" PERFORMER "Dougal & Gammer" INDEX 01 00:00:00FILE "16. Dougal & Gammer - Anybody Else But You.wav" WAVE TRACK 16 AUDIO TITLE "Anybody Else But You" PERFORMER "Dougal & Gammer" INDEX 01 00:00:00FILE "17. Dougal & Gammer - Models Are Ugly.wav" WAVE TRACK 17 AUDIO TITLE "Models Are Ugly" PERFORMER "Dougal & Gammer" INDEX 01 00:00:00FILE "18. Dougal & Gammer feat. Jenna & Whizzkid - All My Life (Facelift).wav" WAVE TRACK 18 AUDIO TITLE "All My Life (Facelift)" PERFORMER "Dougal & Gammer feat. Jenna & Whizzkid" INDEX 01 00:00:00FILE "19. Hixxy vs. Dougal & Gammer - Phase To Phase.wav" WAVE TRACK 19 AUDIO TITLE "Phase To Phase" PERFORMER "Hixxy vs. Dougal & Gammer" INDEX 01 00:00:00FILE "20. Dougal & Gammer - Don't Stop Go.wav" WAVE TRACK 20 AUDIO TITLE "Don't Stop Go" PERFORMER "Dougal & Gammer" INDEX 01 00:00:00FILE "21. Dougal & Gammer - This Is A Virus.wav" WAVE TRACK 21 AUDIO TITLE "This Is A Virus" PERFORMER "Dougal & Gammer" INDEX 01 00:00:00FILE "22. Dougal & Gammer feat. Jenna - All The Tears I've Cried.wav" WAVE TRACK 22 AUDIO TITLE "All The Tears I've Cried" PERFORMER "Dougal & Gammer feat. Jenna" INDEX 01 00:00:00FILE "23. Dougal & Gammer - Rock This.wav" WAVE TRACK 23 AUDIO TITLE "Rock This" PERFORMER "Dougal & Gammer" INDEX 01 00:00:00FILE "24. Dougal & Gammer - Horns Of Jericho.wav" WAVE TRACK 24 AUDIO TITLE "Horns Of Jericho" PERFORMER "Dougal & Gammer" INDEX 01 00:00:00FILE "25. Dougal & Gammer - Wii Go Crazy.wav" WAVE TRACK 25 AUDIO TITLE "Wii Go Crazy" PERFORMER "Dougal & Gammer" INDEX 01 00:00:00FILE "26. Dougal & Gammer feat. Jenna - When I Close My Eyes.wav" WAVE TRACK 26 AUDIO TITLE "When I Close My Eyes" PERFORMER "Dougal & Gammer feat. Jenna" INDEX 01 00:00:00FILE "27. Dougal & Gammer - Make Noise.wav" WAVE TRACK 27 AUDIO TITLE "Make Noise" PERFORMER "Dougal & Gammer" INDEX 01 00:00:00FILE "28. Dougal & Gammer - Nobody Likes It.wav" WAVE TRACK 28 AUDIO TITLE "Nobody Likes It" PERFORMER "Dougal & Gammer" INDEX 01 00:00:00FILE "29. Dougal & Gammer - Fires In The Sky (Facelift).wav" WAVE TRACK 29 AUDIO TITLE "Fires In The Sky (Facelift)" PERFORMER "Dougal & Gammer" INDEX 01 00:00:00

Лог проверки качества

CD1 - When Nobody Liked Us
AUDIOCHECKER v2.0 beta (build 457) - by Dester - opdester@freemail.hu~~~~~~~~~~~~~~~~~~~~~~~~~~~~~~~~~~-=== НЕ РЕДАКТИРУЙТЕ ЭТОТ ФАЙЛ! ===-
Путь: ...\CD1
01 -=- 01. United In Dance feat. Lisa Marie - Lift Me Above.flac -=- CDDA (100%)02 -=- 02. Dougal & Gammer - Higher Than Heaven.flac -=- CDDA (100%)03 -=- 03. Dougal & Gammer - Get Hype (Facelift).flac -=- CDDA (100%)04 -=- 04. Dougal & Gammer feat. Lisa Marie - Open Your Eyes.flac -=- CDDA (100%)05 -=- 05. Dougal & Gammer - 3000 Cycles.flac -=- CDDA (100%)06 -=- 06. Dougal & Gammer feat. Stefan B & Jenna - Bathe In Your Tears.flac -=- CDDA (100%)07 -=- 07. Dougal & Gammer feat. Jenna & MC Smiley - Ordinary People.flac -=- CDDA (100%)08 -=- 08. Dougal & Gammer - Make Noise.flac -=- CDDA (100%)09 -=- 09. Dougal & Gammer feat. Jenna - Paradise.flac -=- CDDA (99%)10 -=- 10. Dougal & Gammer - The 6th Gate.flac -=- CDDA (100%)11 -=- 11. Dougal & Gammer - What We Got.flac -=- CDDA (100%)12 -=- 12. Dougal & Gammer - Fires In The Sky.flac -=- CDDA (100%)
Сводка 99,92% CDDA
41887044

CD2 - When Everybody Liked Us

AUDIOCHECKER v2.0 beta (build 457) - by Dester - opdester@freemail.hu~~~~~~~~~~~~~~~~~~~~~~~~~~~~~~~~~~-=== НЕ РЕДАКТИРУЙТЕ ЭТОТ ФАЙЛ! ===-
Путь: ...\CD2
01 -=- 01. Dougal & Gammer - Guitar Hero.flac -=- MPEG (79%)02 -=- 02. Dougal & Gammer feat. Jenna - When I Close My Eyes.flac -=- CDDA (100%)03 -=- 03. Dougal & Gammer feat. Niki Mak - All My Dreams.flac -=- CDDA (100%)04 -=- 04. Dougal & Gammer - Rock This.flac -=- CDDA (100%)05 -=- 05. Dougal & Gammer - The Tunnel.flac -=- CDDA (100%)06 -=- 06. Dougal & Gammer - Horns Of Jericho.flac -=- CDDA (100%)07 -=- 07. Dougal & Gammer feat. Jenna - All The Tears I've Cried.flac -=- CDDA (100%)08 -=- 08. Mickey Skeedale feat. Jenna - Through The Darkness (Dougal & Gammer 2009 Remix).flac -=- CDDA (100%)09 -=- 09. United In Dance - 1234.flac -=- CDDA (100%)10 -=- 10. Dougal & Gammer - Brainstorm.flac -=- CDDA (99%)11 -=- 11. Dougal & Gammer - Fuck Me I'm Famous.flac -=- CDDA (100%)12 -=- 12. Dougal & Gammer vs. Hixxy - Dark Skies.flac -=- CDDA (100%)13 -=- 13. Dougal & Gammer feat. Jenna - Lose Me Forever.flac -=- CDDA (100%)14 -=- 14. Dougal & Gammer vs. Technikore - Corruption For The Weekend.flac -=- CDDA (100%)
Сводка 94,29% CDDA
213648884

CD3 - When The People Who Used To Like Us Stopped Liking Us But Some New People Probably Like Us Now

AUDIOCHECKER v2.0 beta (build 457) - by Dester - opdester@freemail.hu~~~~~~~~~~~~~~~~~~~~~~~~~~~~~~~~~~-=== НЕ РЕДАКТИРУЙТЕ ЭТОТ ФАЙЛ! ===-
Путь: ...\CD3
01 -=- 01. Dougal & Gammer - Burn.flac -=- CDDA (100%)02 -=- 02. Dougal & Gammer - Float Away.flac -=- MPEG (95%)03 -=- 03. Dougal & Gammer feat. Hannah Faulkner - The One.flac -=- MPEG (95%)04 -=- 04. Dougal & Gammer - Don't Leave Me.flac -=- CDDA (100%)05 -=- 05. Dougal & Gammer - Fuck That Shit.flac -=- CDDA (100%)06 -=- 06. Dougal & Gammer - Trust In Me.flac -=- CDDA (100%)07 -=- 07. Dougal & Gammer feat. Niki Mak - Back Home.flac -=- CDDA (100%)08 -=- 08. Dougal & Gammer - Your One.flac -=- CDDA (100%)09 -=- 09. Dougal & Gammer feat. Hannah Faulkner - Knight In Shining Armour.flac -=- CDDA (100%)10 -=- 10. Dougal & Gammer - Monster (Remaster).flac -=- CDDA (100%)11 -=- 11. Dougal & Gammer - Lifting Me Higher.flac -=- CDDA (100%)12 -=- 12. Dougal & Gammer feat. Jerome - Domination.flac -=- CDDA (99%)13 -=- 13. Dougal & Gammer feat. Niki Mak - Everytime I Hear Your Name.flac -=- CDDA (100%)
Сводка 85,31% CDDA
35368484

CD4 - Dougal & Gammer's Personal Favourites (Apart From One)

AUDIOCHECKER v2.0 beta (build 457) - by Dester - opdester@freemail.hu~~~~~~~~~~~~~~~~~~~~~~~~~~~~~~~~~~-=== НЕ РЕДАКТИРУЙТЕ ЭТОТ ФАЙЛ! ===-
Путь: ...\CD4
01 -=- 01. Dougal & Gammer - Burn.flac -=- CDDA (100%)02 -=- 02. Dougal & Gammer - Float Away.flac -=- MPEG (95%)03 -=- 03. Dougal & Gammer - Fuck That Shit.flac -=- CDDA (100%)04 -=- 04. Dougal & Gammer feat. Hannah Faulkner - The One.flac -=- CDDA (100%)05 -=- 05. Dougal & Gammer - Red 7.flac -=- CDDA (100%)06 -=- 06. Dougal & Gammer - Monster (Ayobi Remix).flac -=- MPEG (95%)07 -=- 07. Dougal & Gammer - Monster (Remaster).flac -=- CDDA (100%)08 -=- 08. Dougal & Gammer - Trust In Me.flac -=- CDDA (100%)09 -=- 09. Dougal & Gammer - Your One.flac -=- CDDA (99%)10 -=- 10. Dougal & Gammer - Don't Leave Me.flac -=- CDDA (100%)11 -=- 11. Dougal & Gammer feat. Niki Mak - Back Home.flac -=- CDDA (100%)12 -=- 12. Dougal & Gammer feat. Jerome - Domination.flac -=- CDDA (100%)13 -=- 13. United In Dance - 1234.flac -=- CDDA (99%)14 -=- 14. Dougal & Gammer feat. Niki Mak - Everytime I Hear Your Name.flac -=- CDDA (100%)15 -=- 15. Dougal & Gammer - Guitar Hero.flac -=- CDDA (100%)16 -=- 16. Dougal & Gammer - Anybody Else But You.flac -=- CDDA (100%)17 -=- 17. Dougal & Gammer - Models Are Ugly.flac -=- CDDA (100%)18 -=- 18. Dougal & Gammer feat. Jenna & Whizzkid - All My Life (Facelift).flac -=- CDDA (100%)19 -=- 19. Hixxy vs. Dougal & Gammer - Phase To Phase.flac -=- CDDA (100%)20 -=- 20. Dougal & Gammer - Don't Stop Go.flac -=- CDDA (100%)21 -=- 21. Dougal & Gammer - This Is A Virus.flac -=- CDDA (100%)22 -=- 22. Dougal & Gammer feat. Jenna - All The Tears I've Cried.flac -=- CDDA (100%)23 -=- 23. Dougal & Gammer - Rock This.flac -=- CDDA (100%)24 -=- 24. Dougal & Gammer - Horns Of Jericho.flac -=- CDDA (100%)25 -=- 25. Dougal & Gammer - Wii Go Crazy.flac -=- CDDA (100%)26 -=- 26. Dougal & Gammer feat. Jenna - When I Close My Eyes.flac -=- CDDA (100%)27 -=- 27. Dougal & Gammer - Make Noise.flac -=- CDDA (100%)28 -=- 28. Dougal & Gammer - Nobody Likes It.flac -=- CDDA (100%)29 -=- 29. Dougal & Gammer - Fires In The Sky (Facelift).flac -=- CDDA (100%)
Сводка 93,38% CDDA
266901684

Скриншот спектра частот (типо как mpeg треки с 1-3 CD)


_________________
Показать сообщения:    

Текущее время: Сегодня 10:35

Часовой пояс: GMT



Вы не можете начинать темы
Вы не можете отвечать на сообщения
Вы не можете редактировать свои сообщения
Вы не можете удалять свои сообщения
Вы не можете голосовать в опросах
Вы не можете прикреплять файлы к сообщениям
Вы не можете скачивать файлы
Наши партнеры: интернет магазин Ивановского трикотажа textilla.ru