Важное объявление!
У Нас Все раздачи мультитрекерные, при нуле пиров в релизах, можете смело вставать на закачку!
 
Автор Сообщение

HUNTER

Стаж:
4 года 7 месяцев
Сообщений:
61521

Репутация: 101

[+] [-]
Вне форума [Профиль] [ЛС]

Various Artists - The Ultimate Hardcore Album
Жанр: UK Hardcore, Breakbeat, Hardcore, Happy Hardcore
Страна-производитель диска: UK
Год издания: 2008
Издатель (лейбл): Decadance Recordings
Номер по каталогу: DECULT13
Аудиокодек: FLAC (*.flac)
Тип рипа: image+.cue
Битрейт аудио: lossless
Продолжительность: 3:15:27
Источник (релизер): Диск из личной коллекции
Наличие сканов в содержимом раздачи: да
Треклист:
CD1: (1:04:49)
01. Bang The Future Feat. Malaya – Real World (Breeze & Styles Remix)
02. Billy 'Daniel' Bunter, CLSM & Junior – Cry Your Tears (Al Storm Remix)
03. Weaver & Andy L Feat. Angel Eyez – Time To Let Go
04. Sparky & Sytronik Feat. Ali – Wonderland
05. Billy 'Daniel' Bunter & Sparky Feat. Lisa Abbott – Keep Me More
06. UK Hard Feat. Nikki Mak – Inside Your Mind (UFO Remix)
07. Billy 'Daniel' Bunter & CLSM Feat. Leah Symons – My Desire
08. SMS & Donna Grassie – It's Amazing
09. Jon Doe – Warehouse (Cube::Hard Remix)
10. Slippery Project – Something Like This (Dougal & Gammer Remix)
11. Kingsize & Eternity – You Belong To Me
12. SMD – SMD5
CD2: (1:06:09)
01. Billy 'Daniel' Bunter & Jon Doe Feat. Faye Hendry – Round & Round (Sy & Unknown Remix)
02. UK Hardcore – Sounds Running Through Your Mind (Gammer Remix)
03. SMD – SMD#2AA (Al Storm Remix)
04. SMS Feat. Zoe & Hattrix – Love You More
05. Billy 'Daniel' Bunter & CLSM Feat. Lisa Abbott – Best In Me
06. Slipmatt – After Dark
07. Technikore Feat. Alison Wade – Feel Alive
08. Sparky Feat. Alison Wade – Escape From My Dreams
09. Stu & Nee Feat. Karen Danzig – You Got The Power (Billy 'Daniel' Bunter & Sparky Remix)
10. SMD – SMD#1A (Sparky & Sytronik Remix)
11. Slipmatt & Eruption – Party People
12. Happy Rollers – Musik (DJ Ham Remix)
CD3: (1:04:29)
01. UK Hardcore & Nikki Mak – Sunshine After The Rain
02. Technikore Feat. Angel Eyez – Follow The Light
03. Billy 'Daniel' Bunter & Sparky Feat. Lisa Abbott – Make It Better
04. Weaver & Andy L – Forever & Ever
05. Sparky & Sytronik Feat. Callum – Reach Out
06. D Boosh – I'll Find You (Joey Riot Remix)
07. UK Hardcore & Taya – Power Builds
08. Slipmatt & CLSM Feat. Lea Symons – Need You More
09. BDB, Sparky & Donna Grassie – Feel Devotion
10. Sparky & Sytronik Feat. MC B – Hands In The Air
11. SMD – SMD#3A (Dougal & Gammer Remix)
12. DJ Ham – Is Anybody Out There

-

Лог создания рипа CD1

Exact Audio Copy V0.99 prebeta 4 from 23. January 2008
Отчёт EAC об извлечении, выполненном 14. марта 2013, 23:02
Various / The Ultimate Hardcore Album - (CD1)
Дисковод: Optiarc DVD RW AD-7261S Adapter: 1 ID: 1
Режим чтения : ДостоверностьИспользование точного потока : ДаОтключение кэша аудио : ДаИспользование указателей C2 : Нет
Коррекция смещения при чтении : 48Способность читать области Lead-in и Lead-out : НетЗаполнение пропущенных сэмплов тишиной : ДаУдаление блоков с тишиной в начале и конце : НетПри вычислениях CRC использовались нулевые сэмплы : ДаИнтерфейс : Встроенный Win32-интерфейс для Win NT/2000
Выходной формат : Внутренние WAV-операцииФормат сэмплов : 44.100 Гц; 16 бит; стерео
TOC извлечённого CD
Трек | Старт | Длительность | Начальный сектор | Конечный сектор --------------------------------------------------------------------- 1 | 0:00.00 | 4:52.51 | 0 | 21950 2 | 4:52.51 | 5:46.61 | 21951 | 47961 3 | 10:39.37 | 6:20.56 | 47962 | 76517 4 | 17:00.18 | 6:17.53 | 76518 | 104845 5 | 23:17.71 | 5:21.30 | 104846 | 128950 6 | 28:39.26 | 4:56.25 | 128951 | 151175 7 | 33:35.51 | 5:26.13 | 151176 | 175638 8 | 39:01.64 | 5:39.73 | 175639 | 201136 9 | 44:41.62 | 5:51.55 | 201137 | 227516 10 | 50:33.42 | 4:08.01 | 227517 | 246117 11 | 54:41.43 | 5:31.49 | 246118 | 270991 12 | 60:13.17 | 4:35.58 | 270992 | 291674
Характеристики диапазона извлечения и сообщения об ошибках
Выбранный диапазон
Имя файла C:\Users\Meijin\Desktop\Новая папка (4)\Various - The Ultimate Hardcore Album - (CD1).wav
Пиковый уровень 100.0 % Качество диапазона 100.0 % CRC теста A5A7CEA5 CRC копии A5A7CEA5 Копирование... OK
Ошибок не произошло
AccurateRip: сводка
Трек 1 точное извлечение (доверие 1) [5CE3372A]Трек 2 точное извлечение (доверие 1) [57E0CFE3]Трек 3 точное извлечение (доверие 1) [827CC1C8]Трек 4 точное извлечение (доверие 1) [C05F06BE]Трек 5 точное извлечение (доверие 1) [FB974BF3]Трек 6 точное извлечение (доверие 1) [F24AF75B]Трек 7 точное извлечение (доверие 1) [E9BDBA68]Трек 8 точное извлечение (доверие 1) [080FB499]Трек 9 точное извлечение (доверие 1) [460F0FA5]Трек 10 точное извлечение (доверие 1) [C69A28F8]Трек 11 точное извлечение (доверие 1) [1477945D]Трек 12 точное извлечение (доверие 1) [8B653CE7]
Все треки извлечены точно
Конец отчёта

Лог создания рипа CD2

Exact Audio Copy V0.99 prebeta 4 from 23. January 2008
Отчёт EAC об извлечении, выполненном 14. марта 2013, 23:35
Various / The Ultimate Hardcore Album - (CD2)
Дисковод: Optiarc DVD RW AD-7261S Adapter: 1 ID: 1
Режим чтения : ДостоверностьИспользование точного потока : ДаОтключение кэша аудио : ДаИспользование указателей C2 : Нет
Коррекция смещения при чтении : 48Способность читать области Lead-in и Lead-out : НетЗаполнение пропущенных сэмплов тишиной : ДаУдаление блоков с тишиной в начале и конце : НетПри вычислениях CRC использовались нулевые сэмплы : ДаИнтерфейс : Встроенный Win32-интерфейс для Win NT/2000
Выходной формат : Внутренние WAV-операцииФормат сэмплов : 44.100 Гц; 16 бит; стерео
TOC извлечённого CD
Трек | Старт | Длительность | Начальный сектор | Конечный сектор --------------------------------------------------------------------- 1 | 0:00.00 | 5:30.04 | 0 | 24753 2 | 5:30.04 | 5:10.06 | 24754 | 48009 3 | 10:40.10 | 5:44.36 | 48010 | 73845 4 | 16:24.46 | 6:02.53 | 73846 | 101048 5 | 22:27.24 | 5:17.65 | 101049 | 124888 6 | 27:45.14 | 4:48.53 | 124889 | 146541 7 | 32:33.67 | 5:22.08 | 146542 | 170699 8 | 37:56.00 | 6:44.66 | 170700 | 201065 9 | 44:40.66 | 4:59.12 | 201066 | 223502 10 | 49:40.03 | 5:08.15 | 223503 | 246617 11 | 54:48.18 | 5:40.31 | 246618 | 272148 12 | 60:28.49 | 5:40.26 | 272149 | 297674
Характеристики диапазона извлечения и сообщения об ошибках
Выбранный диапазон
Имя файла C:\Users\Meijin\Desktop\Новая папка (4)\Various - The Ultimate Hardcore Album - (CD2).wav
Пиковый уровень 100.0 % Качество диапазона 100.0 % CRC теста 0401B063 CRC копии 0401B063 Копирование... OK
Ошибок не произошло
AccurateRip: сводка
Трек 1 точное извлечение (доверие 1) [0F428A2D]Трек 2 точное извлечение (доверие 1) [3BDB9362]Трек 3 точное извлечение (доверие 1) [802194BD]Трек 4 точное извлечение (доверие 1) [43936A82]Трек 5 точное извлечение (доверие 1) [F063D162]Трек 6 точное извлечение (доверие 1) [195ECF31]Трек 7 точное извлечение (доверие 1) [B9FD806D]Трек 8 точное извлечение (доверие 1) [CEC36CEE]Трек 9 точное извлечение (доверие 1) [1E012228]Трек 10 точное извлечение (доверие 1) [B4A98417]Трек 11 точное извлечение (доверие 1) [010D0735]Трек 12 точность не определена (достоверность 1) [7929F320], AccurateRip вернул [C77284F2]
11 трек(и) скопированы точно 1 трек(и) не удалось проверить на точность
Некоторые треки не прошли проверку на точность
Конец отчёта

Лог создания рипа CD3

Exact Audio Copy V0.99 prebeta 4 from 23. January 2008
Отчёт EAC об извлечении, выполненном 15. марта 2013, 0:11
Various / The Ultimate Hardcore Album - (CD3)
Дисковод: Optiarc DVD RW AD-7261S Adapter: 1 ID: 1
Режим чтения : ДостоверностьИспользование точного потока : ДаОтключение кэша аудио : ДаИспользование указателей C2 : Нет
Коррекция смещения при чтении : 48Способность читать области Lead-in и Lead-out : НетЗаполнение пропущенных сэмплов тишиной : ДаУдаление блоков с тишиной в начале и конце : НетПри вычислениях CRC использовались нулевые сэмплы : ДаИнтерфейс : Встроенный Win32-интерфейс для Win NT/2000
Выходной формат : Внутренние WAV-операцииФормат сэмплов : 44.100 Гц; 16 бит; стерео
TOC извлечённого CD
Трек | Старт | Длительность | Начальный сектор | Конечный сектор --------------------------------------------------------------------- 1 | 0:00.00 | 4:03.74 | 0 | 18298 2 | 4:03.74 | 5:08.00 | 18299 | 41398 3 | 9:11.74 | 4:56.34 | 41399 | 63632 4 | 14:08.33 | 5:06.30 | 63633 | 86612 5 | 19:14.63 | 5:40.31 | 86613 | 112143 6 | 24:55.19 | 5:42.55 | 112144 | 137848 7 | 30:37.74 | 6:05.13 | 137849 | 165236 8 | 36:43.12 | 6:18.33 | 165237 | 193619 9 | 43:01.45 | 4:35.48 | 193620 | 214292 10 | 47:37.18 | 5:43.46 | 214293 | 240063 11 | 53:20.64 | 5:32.66 | 240064 | 265029 12 | 58:53.55 | 5:35.20 | 265030 | 290174
Характеристики диапазона извлечения и сообщения об ошибках
Выбранный диапазон
Имя файла C:\Users\Meijin\Desktop\Новая папка (4)\Various - The Ultimate Hardcore Album - (CD3).wav
Пиковый уровень 100.0 % Качество диапазона 100.0 % CRC теста 9BD20FCB CRC копии 9BD20FCB Копирование... OK
Ошибок не произошло
AccurateRip: сводка
Трек 1 точное извлечение (доверие 1) [BE36D529]Трек 2 точное извлечение (доверие 1) [C7E86EC2]Трек 3 точное извлечение (доверие 1) [503FB5B4]Трек 4 точность не определена (достоверность 1) [9CC56D22], AccurateRip вернул [A310F2D4]Трек 5 точность не определена (достоверность 1) [8AE2A0FF], AccurateRip вернул [4AE45EF4]Трек 6 точное извлечение (доверие 1) [D93E76C2]Трек 7 точное извлечение (доверие 1) [F0EFE425]Трек 8 точное извлечение (доверие 1) [DB0F8AFC]Трек 9 точное извлечение (доверие 1) [08846F2F]Трек 10 точное извлечение (доверие 1) [6863C895]Трек 11 точное извлечение (доверие 1) [EA11FBA1]Трек 12 точное извлечение (доверие 1) [AC7E2EAD]
0 трек(и) скопированы точно 2 трек(и) не удалось проверить на точность
Некоторые треки не прошли проверку на точность
Конец отчёта

_________________
Показать сообщения:    

Текущее время: Сегодня 15:00

Часовой пояс: GMT



Вы не можете начинать темы
Вы не можете отвечать на сообщения
Вы не можете редактировать свои сообщения
Вы не можете удалять свои сообщения
Вы не можете голосовать в опросах
Вы не можете прикреплять файлы к сообщениям
Вы не можете скачивать файлы
Наши партнеры: интернет магазин Ивановского трикотажа textilla.ru