Важное объявление!
У Нас Все раздачи мультитрекерные, при нуле пиров в релизах, можете смело вставать на закачку!
 
Автор Сообщение

HUNTER

Стаж:
4 года 4 месяца
Сообщений:
56749

Репутация: 101

[+] [-]
Вне форума [Профиль] [ЛС]

Various Artists - Hardcore The Classics 1994-2009
Жанр: UK Hardcore, Breakbeat, Hardcore, Happy Hardcore
Страна-производитель диска: UK
Год издания: 2008
Издатель (лейбл): Ministry Of Sound
Номер по каталогу: MOSCD180
Аудиокодек: FLAC (*.flac)
Тип рипа: image+.cue
Битрейт аудио: lossless
Продолжительность: 3:49:01
Источник (релизер): Диск из личной коллекции
Наличие сканов в содержимом раздачи: да
Треклист:
CD1: Mixed By Slipmatt & Billy Bunter (Back2Back) (1:17:33)
01. Scott Brown – Now Is The Time (3:55)
02. Hixxy & Sharkey – Toytown (2:29)
03. DJ Paul – Rainbow In The Sky (3:59)
04. Billy "Daniel" Bunter & JDS* – Come Alive (4:00)
05. Q-Tex – Power Of Love (3:03)
06. Dougal & Eruption – Party Time (3:37)
07. Sy & Demo – Devotion (4:26)
08. SMD – SMD#1 (Slipmatts 96 Remix) (3:12)
09. Doctor Who – Love Of My Life (2:58)
10. Billy "Daniel" Bunter & DZyne Feat. Gem – Ride Like The Wind (3:37)
11. Triple J – Follow The Sun (3:01)
12. Slipmatt & Eruption – Sunshine (5:14)
13. GBT Inc Feat Alison Wade – Better Day (3:45)
14. Bang The Future – Body Slam (5:01)
15. DJ Demo – You're Mine (4:46)
16. Hopscotch – Streamtrain (3:19)
17. Force & Styles – Pretty Green Eyes (4:12)
18. Bang! – Shooting Star (3:52)
19. Slipmatt – After Dark (3:42)
20. Force & Styles – Heart Of Gold (5:26)
CD2: Mixed By Sy (1:14:48)
01. Force & Styles – Pacific Sun (Sy & Unknown Remix) (3:15)
02. Asa & S1 – Makin' Me Wanna Dance (Sy & Unknown Remix) (4:56)
03. Divine Inspiration – The Way (Put Your Hand In My Hand) (Breeze & Styles Remix) (3:12)
04. Scott Brown – Turn Up The Music (4:15)
05. Breeze & Styles – Future Set (3:00)
06. Frantic – Braveheart (4:28)
07. Insight – Only Your Love (Scott Brown Remix) (3:43)
08. Visa – Fly Away (Hixxy Remix) (3:46)
09. Ian Van Dahl – Inspiration (Recon Remix) (4:38)
10. Collective, The – Kick It (3:31)
11. Scott Brown – Neckbreaker (2:13)
12. Brisk & Ham – Crazy Love (2:22)
13. DJ Kurt – Rock Ya Hrardcore (3:49)
14. Breeze & Styles – Slide Away (Sy & Unknown Remix) (5:43)
15. Scott Brown – Elysium+ (2:48)
16. Gammer – Let It Go (1:29)
17. Breeze & Styles – Electric (3:38)
18. Sy & Unknown – Bring Me Round To Love (Scott Brown's Evolution Remix) (5:33)
19. United In Dance Feat. Lisa Marie – Still The One (3:50)
20. Sy & Unknown Feat. Lou Lou – Caught Up In Your Love (4:40)
CD3: Mixed By Dougal (1:16:40)
01. Basshunter Feat. DJ Mental Theo's Bazzheadz – Now You're Gone (Sy & Unknown Remix) (2:56)
02. Sash! Feat. Stunt – Raindrops (Encore Une Fois) (Jon Doe & Billy "Daniel" Bunter Remix) (Dougal & Gammer Relash) (2:38)
03. September – Cry For You (Dougal & Gammer Remix) (3:53)
04. Utah Saints – Something Good '08 (Dougal & Gammer Remix) (3:52)
05. Gammer & Cat Knight – A New Feeling (5:25)
06. Ida Corr vs. Fedde Le Grand – Let Me Think About It (Dougal & Gammer Remix) (2:47)
07. Dougal & Gammer Feat. Jenna – All The Tears (4:04)
08. Sy & Unknown Feat. Grant Paterson – Only For You (4:04)
09. Dougal & Gammer – Wii Go Crazy (4:25)
10. Sy & Unknown Feat. Lou Lou – Don't Leave Me Now (Darren Styles Remix) (4:28)
11. Sy & Unknown – What A Great Drug (1:29)
12. Dougal, Gammer & Micky Skeedale Feat. Jenna – Through The Darkness (4:38)
13. Brisk & Ham – Angel Eyes (4:04)
14. DJ Yanny Presents Terraformer – Won't Forget These Days (4:40)
15. Angel_One – Hold Me Tonight (DJ Pontos Remix) (5:37)
16. United In Dance – Rocking With The Best (3:09)
17. Cascada – Miracle (Darwin Remix) (2:42)
18. CLSM – Free Your Mind (Darren Styles Remix) (4:49)
19. Dougal & Gammer – Don't Stop (3:30)
20. Basshunter – I Miss You (Slipmatt & Sparky Remix) (3:33)

-

Лог создания рипа CD1

Exact Audio Copy V0.99 prebeta 4 from 23. January 2008
Отчёт EAC об извлечении, выполненном 15. марта 2013, 18:59
Various / Hardcore The Classics 1994 - 2009 (CD1)
Дисковод: Optiarc DVD RW AD-7261S Adapter: 1 ID: 1
Режим чтения : ДостоверностьИспользование точного потока : ДаОтключение кэша аудио : ДаИспользование указателей C2 : Нет
Коррекция смещения при чтении : 48Способность читать области Lead-in и Lead-out : НетЗаполнение пропущенных сэмплов тишиной : ДаУдаление блоков с тишиной в начале и конце : НетПри вычислениях CRC использовались нулевые сэмплы : ДаИнтерфейс : Встроенный Win32-интерфейс для Win NT/2000
Выходной формат : Внутренние WAV-операцииФормат сэмплов : 44.100 Гц; 16 бит; стерео
TOC извлечённого CD
Трек | Старт | Длительность | Начальный сектор | Конечный сектор --------------------------------------------------------------------- 1 | 0:00.00 | 3:54.57 | 0 | 17606 2 | 3:54.57 | 2:28.43 | 17607 | 28749 3 | 6:23.25 | 3:58.43 | 28750 | 46642 4 | 10:21.68 | 4:00.00 | 46643 | 64642 5 | 14:21.68 | 3:02.65 | 64643 | 78357 6 | 17:24.58 | 3:37.10 | 78358 | 94642 7 | 21:01.68 | 4:25.48 | 94643 | 114565 8 | 25:27.41 | 3:12.00 | 114566 | 128965 9 | 28:39.41 | 2:57.62 | 128966 | 142302 10 | 31:37.28 | 3:37.31 | 142303 | 158608 11 | 35:14.59 | 3:00.58 | 158609 | 172166 12 | 38:15.42 | 5:13.65 | 172167 | 195706 13 | 43:29.32 | 3:45.08 | 195707 | 212589 14 | 47:14.40 | 5:01.24 | 212590 | 235188 15 | 52:15.64 | 4:45.60 | 235189 | 256623 16 | 57:01.49 | 3:18.74 | 256624 | 271547 17 | 60:20.48 | 4:12.02 | 271548 | 290449 18 | 64:32.50 | 3:52.09 | 290450 | 307858 19 | 68:24.59 | 3:42.13 | 307859 | 324521 20 | 72:06.72 | 5:25.64 | 324522 | 348960
Характеристики диапазона извлечения и сообщения об ошибках
Выбранный диапазон
Имя файла C:\Users\Meijin\Desktop\Новая папка (4)\Various - Hardcore The Classics 1994 - 2009 (CD1).wav
Пиковый уровень 98.2 % Качество диапазона 100.0 % CRC теста 7EF0E61B CRC копии 7EF0E61B Копирование... OK
Ошибок не произошло
AccurateRip: сводка
Трек 1 точное извлечение (доверие 3) [B65DC955]Трек 2 точное извлечение (доверие 3) [80F97ADB]Трек 3 точное извлечение (доверие 3) [637D27FE]Трек 4 точное извлечение (доверие 3) [2DFF5190]Трек 5 точное извлечение (доверие 3) [BFB580D4]Трек 6 точное извлечение (доверие 3) [2B3DF41A]Трек 7 точное извлечение (доверие 3) [8D74FAEC]Трек 8 точное извлечение (доверие 3) [DBA905E8]Трек 9 точное извлечение (доверие 3) [9BA8E36C]Трек 10 точное извлечение (доверие 3) [139C7074]Трек 11 точное извлечение (доверие 3) [D25F784B]Трек 12 точное извлечение (доверие 3) [225D8A93]Трек 13 точное извлечение (доверие 3) [04115A12]Трек 14 точное извлечение (доверие 3) [73F4F084]Трек 15 точное извлечение (доверие 3) [6C31FF93]Трек 16 точное извлечение (доверие 3) [DB121044]Трек 17 точное извлечение (доверие 3) [104BA797]Трек 18 точное извлечение (доверие 3) [4E3C68F0]Трек 19 точное извлечение (доверие 3) [E65F010F]Трек 20 точное извлечение (доверие 4) [11F40BE7]
Все треки извлечены точно
Конец отчёта

Лог создания рипа CD2

Exact Audio Copy V0.99 prebeta 4 from 23. January 2008
Отчёт EAC об извлечении, выполненном 15. марта 2013, 8:50
Various / Hardcore The Classics 1994 - 2009 (CD2)
Дисковод: Optiarc DVD RW AD-7261S Adapter: 1 ID: 1
Режим чтения : ДостоверностьИспользование точного потока : ДаОтключение кэша аудио : ДаИспользование указателей C2 : Нет
Коррекция смещения при чтении : 48Способность читать области Lead-in и Lead-out : НетЗаполнение пропущенных сэмплов тишиной : ДаУдаление блоков с тишиной в начале и конце : НетПри вычислениях CRC использовались нулевые сэмплы : ДаИнтерфейс : Встроенный Win32-интерфейс для Win NT/2000
Выходной формат : Внутренние WAV-операцииФормат сэмплов : 44.100 Гц; 16 бит; стерео
TOC извлечённого CD
Трек | Старт | Длительность | Начальный сектор | Конечный сектор --------------------------------------------------------------------- 1 | 0:00.00 | 3:14.39 | 0 | 14588 2 | 3:14.39 | 4:56.02 | 14589 | 36790 3 | 8:10.41 | 3:12.23 | 36791 | 51213 4 | 11:22.64 | 4:15.19 | 51214 | 70357 5 | 15:38.08 | 3:00.30 | 70358 | 83887 6 | 18:38.38 | 4:27.52 | 83888 | 103964 7 | 23:06.15 | 3:43.27 | 103965 | 120716 8 | 26:49.42 | 3:46.09 | 120717 | 137675 9 | 30:35.51 | 4:37.33 | 137676 | 158483 10 | 35:13.09 | 3:30.66 | 158484 | 174299 11 | 38:44.00 | 2:13.14 | 174300 | 184288 12 | 40:57.14 | 2:21.38 | 184289 | 194901 13 | 43:18.52 | 3:48.67 | 194902 | 212068 14 | 47:07.44 | 5:42.50 | 212069 | 237768 15 | 52:50.19 | 2:47.64 | 237769 | 250357 16 | 55:38.08 | 1:28.58 | 250358 | 257015 17 | 57:06.66 | 3:37.60 | 257016 | 273350 18 | 60:44.51 | 5:32.72 | 273351 | 298322 19 | 66:17.48 | 3:50.21 | 298323 | 315593 20 | 70:07.69 | 4:40.30 | 315594 | 336623
Характеристики диапазона извлечения и сообщения об ошибках
Выбранный диапазон
Имя файла C:\Users\Meijin\Desktop\Новая папка (4)\Various - Hardcore The Classics 1994 - 2009 (CD2).wav
Пиковый уровень 99.9 % Качество диапазона 100.0 % CRC теста 996A69BE CRC копии 996A69BE Копирование... OK
Ошибок не произошло
AccurateRip: сводка
Трек 1 точное извлечение (доверие 5) [39DD16C0]Трек 2 точное извлечение (доверие 5) [E3D5EAD9]Трек 3 точное извлечение (доверие 5) [FF44E52C]Трек 4 точное извлечение (доверие 5) [7B57E720]Трек 5 точное извлечение (доверие 5) [A2BFA434]Трек 6 точное извлечение (доверие 5) [CDB361B4]Трек 7 точное извлечение (доверие 4) [25C20804]Трек 8 точное извлечение (доверие 5) [93503B12]Трек 9 точное извлечение (доверие 5) [E378095B]Трек 10 точное извлечение (доверие 5) [AF50E86E]Трек 11 точное извлечение (доверие 5) [DB334D81]Трек 12 точное извлечение (доверие 5) [9D723C02]Трек 13 точное извлечение (доверие 5) [324527A8]Трек 14 точное извлечение (доверие 5) [21485041]Трек 15 точное извлечение (доверие 5) [84D763F9]Трек 16 точное извлечение (доверие 5) [8200452E]Трек 17 точное извлечение (доверие 5) [8BA777C7]Трек 18 точное извлечение (доверие 5) [79AB5135]Трек 19 точное извлечение (доверие 5) [196C3048]Трек 20 точное извлечение (доверие 5) [312276E7]
Все треки извлечены точно
Конец отчёта

Лог создания рипа CD3

Exact Audio Copy V0.99 prebeta 4 from 23. January 2008
Отчёт EAC об извлечении, выполненном 15. марта 2013, 8:14
Various / Hardcore The Classics 1994-2009 (CD3)
Дисковод: Optiarc DVD RW AD-7261S Adapter: 1 ID: 1
Режим чтения : ДостоверностьИспользование точного потока : ДаОтключение кэша аудио : ДаИспользование указателей C2 : Нет
Коррекция смещения при чтении : 48Способность читать области Lead-in и Lead-out : НетЗаполнение пропущенных сэмплов тишиной : ДаУдаление блоков с тишиной в начале и конце : НетПри вычислениях CRC использовались нулевые сэмплы : ДаИнтерфейс : Встроенный Win32-интерфейс для Win NT/2000
Выходной формат : Внутренние WAV-операцииФормат сэмплов : 44.100 Гц; 16 бит; стерео
TOC извлечённого CD
Трек | Старт | Длительность | Начальный сектор | Конечный сектор --------------------------------------------------------------------- 1 | 0:00.00 | 2:55.36 | 0 | 13160 2 | 2:55.36 | 2:38.11 | 13161 | 25021 3 | 5:33.47 | 3:53.04 | 25022 | 42500 4 | 9:26.51 | 3:51.51 | 42501 | 59876 5 | 13:18.27 | 5:24.47 | 59877 | 84223 6 | 18:42.74 | 2:46.35 | 84224 | 96708 7 | 21:29.34 | 4:04.12 | 96709 | 115020 8 | 25:33.46 | 4:04.13 | 115021 | 133333 9 | 29:37.59 | 4:25.10 | 133334 | 153218 10 | 34:02.69 | 4:27.43 | 153219 | 173286 11 | 38:30.37 | 1:28.59 | 173287 | 179945 12 | 39:59.21 | 4:37.35 | 179946 | 200755 13 | 44:36.56 | 4:04.13 | 200756 | 219068 14 | 48:40.69 | 4:40.19 | 219069 | 240087 15 | 53:21.13 | 5:37.09 | 240088 | 265371 16 | 58:58.22 | 3:08.50 | 265372 | 279521 17 | 62:06.72 | 2:42.23 | 279522 | 291694 18 | 64:49.20 | 4:48.43 | 291695 | 313337 19 | 69:37.63 | 3:29.35 | 313338 | 329047 20 | 73:07.23 | 3:32.36 | 329048 | 344983
Характеристики диапазона извлечения и сообщения об ошибках
Выбранный диапазон
Имя файла C:\Users\Meijin\Desktop\Новая папка (4)\Various - Hardcore The Classics 1994-2009 (CD3).wav
Пиковый уровень 98.8 % Качество диапазона 100.0 % CRC теста 053D582F CRC копии 053D582F Копирование... OK
Ошибок не произошло
AccurateRip: сводка
Трек 1 точное извлечение (доверие 4) [16513FE9]Трек 2 точное извлечение (доверие 4) [34D5D52B]Трек 3 точное извлечение (доверие 4) [B40A8F83]Трек 4 точное извлечение (доверие 4) [9EE1E26D]Трек 5 точное извлечение (доверие 4) [F89CA2FB]Трек 6 точное извлечение (доверие 4) [EED6D031]Трек 7 точное извлечение (доверие 4) [1FF79116]Трек 8 точное извлечение (доверие 4) [603C8F84]Трек 9 точное извлечение (доверие 4) [4D30DA7C]Трек 10 точное извлечение (доверие 4) [9703964C]Трек 11 точное извлечение (доверие 4) [F552958E]Трек 12 точное извлечение (доверие 4) [6D458D6F]Трек 13 точное извлечение (доверие 4) [AFD28CAB]Трек 14 точное извлечение (доверие 4) [1A98852A]Трек 15 точное извлечение (доверие 4) [4E135CB4]Трек 16 точное извлечение (доверие 4) [AF8BFEDC]Трек 17 точное извлечение (доверие 4) [3658CE71]Трек 18 точное извлечение (доверие 4) [84495B90]Трек 19 точное извлечение (доверие 4) [0239EC08]Трек 20 точное извлечение (доверие 4) [41EA4C13]
Все треки извлечены точно
Конец отчёта

_________________
Показать сообщения:    

Текущее время: Сегодня 23:33

Часовой пояс: GMT



Вы не можете начинать темы
Вы не можете отвечать на сообщения
Вы не можете редактировать свои сообщения
Вы не можете удалять свои сообщения
Вы не можете голосовать в опросах
Вы не можете прикреплять файлы к сообщениям
Вы не можете скачивать файлы