[Udemy.com] Swift programming for iOS with Parse. Practical examples. [2015, ENG] :: Ивановский Торрент трекер
Важное объявление!
У Нас Все раздачи мультитрекерные, при нуле пиров в релизах, можете смело вставать на закачку!
Статистика раздачи
Размер:     |    Зарегистрирован:     |    Скачан:     |   
Нет
 
     
 
 
Автор Сообщение

HUNTER

Стаж:
4 года 11 месяцев
Сообщений:
66090

Репутация: 101

[+] [-]
Вне форума [Профиль] [ЛС]

Swift programming for iOS with Parse. Practical examples.
Год выпуска: 2015
Производитель: Udemy
Сайт производителя: udemy.com/swift-developer-cookies-user-sign-up-login-password-reset
Автор: Sergey Kargopolov (Сергей Каргополов)
Продолжительность: 7:48
Тип раздаваемого материала: Видеоклипы
Язык: Английский
Описание: Almost every mobile application requires User Sign up, Login, Logout and Password reset functionality. Also, very often mobile apps use left side menu as navigation which is some times called Navigation Drawer.
In this course we will create a fully functional examples that you can take and integrate into your Swift mobile app.

Содержание

Section 1: Introduction
Lecture 1
Introduction
01:58
Section 2: Building user interface in Xcode
Lecture 2
Sign in page user interface
09:32
Lecture 3
Sign up page user interface
06:25
Lecture 4
Create Protected page
02:10
Lecture 5
Enable the Sign up button
01:12
Section 3: Parse Cloud Service
Lecture 6
Create a new Parse App
01:46
Lecture 7
Integrate Parse into your Swift mobile app
09:08
Section 4: Writing business logic in Swift
Lecture 8
Select profile photo
11:57
Lecture 9
Adjust Registration page UI to fit more fields on the page
10:59
Lecture 10
Enable the Cancel button on Sign up page
01:36
Lecture 11
Validate Sign up form text fields
18:59
Lecture 12
Perform Sign up. Send user sign up details to Parse
14:01
Lecture 13
Making sure sign up page works properly
02:00
Lecture 14
Implementing "User Email Address Verification"
10:40
Lecture 15
Perform User Sign in
14:04
Lecture 16
Remember user login state and navigate to Protected page
18:52
Section 5: Building Navigation Drawer or Left side sliding menu
Lecture 17
Navigation Drawer: Downloading & Installing open source project
05:39
Lecture 18
Navigation Drawer: Left side menu TableView Controller datasource methods
12:02
Lecture 19
Navigation Drawer: Building right side View Controller
03:04
Lecture 20
Navigation Drawer: Putting everything together
16:17
Lecture 21
Navigation Drawer: Left side menu - Enable menu options
18:16
Lecture 22
Populate Left Side menu with user profile picture
08:12
Lecture 23
Navigation drawer: Add left side and right side button items
07:37
Section 6: Wrapping up with Sign in and Sign up section
Lecture 24
Sign out
14:55
Lecture 25
Implementing Activity Indicator - MBProgressHUD
20:45
Lecture 26
Reset password - Building user interface
09:05
Lecture 27
Password reset - writing business logic
19:52
Section 7: Update User Profile Details
Lecture 28
Edit Profile Details - Building user interface
08:16
Lecture 29
Saving Updated User Details in Parse Cloud
22:33
Lecture 30
Refreshing User Details on the Left Side Navigation Menu
12:17
Section 8: Project Source Code in Swift Programming Language
Lecture 31
Source code
Text
Lecture 32
Project source code in Swift 2 created with Xcode 7 Pre release
Text
Section 9: Social Sign: Log in with Facebook account
Lecture 33
Create Facebook Application. Download Facebook SDK and configure Xcode project
07:06
Lecture 34
Configure AppDelegate file to support Facebook Sign in
04:00
Lecture 35
Create new button "Sign in with Facebook account"
02:08
Lecture 36
Implement Facebook log in in background with Permissions
09:57
Lecture 37
Implement Facebook Graph API Request to load User profile details
08:03
Lecture 38
Save Facebook user details in Parse cloud and complete this feature
10:55
Section 10: Social sign in: Sign in with Twitter account
Lecture 39
Create Twitter App and configure AppDelegate to support Twitter Sign in
06:26
Lecture 40
Create new Sign in with Twitter account button
01:40
Lecture 41
Implement Twitter Sign in
03:17
Lecture 42
Load Twitter user profile details
10:50
Lecture 43
Save Twitter user details in Parse
06:48
Section 11: Sending and Receiving Push Notifications
Lecture 44
Generating Apple Push Certificates
09:24
Lecture 45
Configure Apple Development and adHoc Provisioning Profiles
10:31
Lecture 46
Enable Push Notifications in your Parse account
03:05
Lecture 47
Configure mobile app to support push notifications
05:25
Lecture 48
Checking if Push Messages work. Sending Push Message from Parse Cloud.
06:21
Lecture 49
Sending Push Notifications with Parse Rest API
06:24
Lecture 50
Sending Push Message from PHP script
05:32
Lecture 51
Sending Push Notifications from your Swift App
07:59
Lecture 52
Sending Push Notification to Specific Channel
07:12
Lecture 53
Responding to Push Message
12:04
Lecture 54
Source code of PHP script that sends push message via Parse REST API
Text
Lecture 55
Demo App Xcode project. Source code.
Text
Section 12: Case Sensitive and Case Insensitive Search with Parse SDK
Lecture 56
Performing Case Sensitive and Case Insensitive Search
27:20
Файлы примеров: отсутствуют
Формат видео: MP4
Видео: AVC, 1280x720, 16:9, 30fps
Аудио: AAC, 44.1kHz, 58.8kbps, stereo

MediaInfo

General
Complete name : 12 Case Sensitive and Case Insensitive Search with Parse SDK\001 Performing Case Sensitive and Case Insensitive Search.mp4
Format : MPEG-4
Format profile : Base Media
Codec ID : isom (isom/avc1/mp42)
File size : 129 MiB
Duration : 27mn 20s
Overall bit rate mode : Variable
Overall bit rate : 660 Kbps
Encoded date : UTC 2015-08-05 04:33:00
Tagged date : UTC 2015-08-05 04:33:00
Video
ID : 1
Format : AVC
Format/Info : Advanced Video Codec
Format profile : Baseline@L3.1
Format settings, CABAC : No
Format settings, ReFrames : 3 frames
Format settings, GOP : M=1, N=50
Codec ID : avc1
Codec ID/Info : Advanced Video Coding
Duration : 27mn 20s
Bit rate : 599 Kbps
Maximum bit rate : 5 763 Kbps
Width : 1 280 pixels
Height : 720 pixels
Display aspect ratio : 16:9
Frame rate mode : Constant
Frame rate : 30.000 fps
Color space : YUV
Chroma subsampling : 4:2:0
Bit depth : 8 bits
Scan type : Progressive
Bits/(Pixel*Frame) : 0.022
Stream size : 117 MiB (91%)
Writing library : Zencoder Video Encoding System
Encoded date : UTC 2015-08-05 04:31:09
Tagged date : UTC 2015-08-05 04:33:00
Color range : Limited
Color primaries : BT.709
Transfer characteristics : BT.709
Matrix coefficients : BT.709
Audio
ID : 2
Format : AAC
Format/Info : Advanced Audio Codec
Format profile : LC
Codec ID : 40
Duration : 27mn 20s
Bit rate mode : Variable
Bit rate : 58.9 Kbps
Maximum bit rate : 68.5 Kbps
Channel(s) : 2 channels
Channel positions : Front: L R
Sampling rate : 44.1 KHz
Frame rate : 43.066 fps (1024 spf)
Compression mode : Lossy
Stream size : 11.5 MiB (9%)
Encoded date : UTC 2015-08-05 04:31:09
Tagged date : UTC 2015-08-05 04:33:00
General
Complete name : 11 Sending and Receiving Push Notifications\010 Responding to Push Message.mp4
Format : MPEG-4
Format profile : Base Media
Codec ID : isom (isom/avc1/mp42)
File size : 60.8 MiB
Duration : 12mn 4s
Overall bit rate mode : Variable
Overall bit rate : 704 Kbps
Encoded date : UTC 2015-08-05 01:28:16
Tagged date : UTC 2015-08-05 01:28:16
Video
ID : 1
Format : AVC
Format/Info : Advanced Video Codec
Format profile : Baseline@L3.1
Format settings, CABAC : No
Format settings, ReFrames : 3 frames
Format settings, GOP : M=1, N=50
Codec ID : avc1
Codec ID/Info : Advanced Video Coding
Duration : 12mn 4s
Bit rate : 646 Kbps
Maximum bit rate : 2 526 Kbps
Width : 1 280 pixels
Height : 720 pixels
Display aspect ratio : 16:9
Frame rate mode : Constant
Frame rate : 30.000 fps
Color space : YUV
Chroma subsampling : 4:2:0
Bit depth : 8 bits
Scan type : Progressive
Bits/(Pixel*Frame) : 0.023
Stream size : 55.8 MiB (92%)
Writing library : Zencoder Video Encoding System
Encoded date : UTC 2015-08-05 01:26:40
Tagged date : UTC 2015-08-05 01:28:16
Color range : Limited
Color primaries : BT.709
Transfer characteristics : BT.709
Matrix coefficients : BT.709
Audio
ID : 2
Format : AAC
Format/Info : Advanced Audio Codec
Format profile : LC
Codec ID : 40
Duration : 12mn 4s
Bit rate mode : Variable
Bit rate : 55.2 Kbps
Maximum bit rate : 68.5 Kbps
Channel(s) : 2 channels
Channel positions : Front: L R
Sampling rate : 44.1 KHz
Frame rate : 43.066 fps (1024 spf)
Compression mode : Lossy
Stream size : 4.76 MiB (8%)
Encoded date : UTC 2015-08-05 01:26:39
Tagged date : UTC 2015-08-05 01:28:16
General
Complete name : 11 Sending and Receiving Push Notifications\009 Sending Push Notification to Specific Channel.mp4
Format : MPEG-4
Format profile : Base Media
Codec ID : isom (isom/avc1/mp42)
File size : 31.5 MiB
Duration : 7mn 12s
Overall bit rate mode : Variable
Overall bit rate : 611 Kbps
Encoded date : UTC 2015-08-05 01:25:08
Tagged date : UTC 2015-08-05 01:25:08
Video
ID : 1
Format : AVC
Format/Info : Advanced Video Codec
Format profile : Baseline@L3.1
Format settings, CABAC : No
Format settings, ReFrames : 3 frames
Format settings, GOP : M=1, N=50
Codec ID : avc1
Codec ID/Info : Advanced Video Coding
Duration : 7mn 12s
Bit rate : 552 Kbps
Maximum bit rate : 6 807 Kbps
Width : 1 280 pixels
Height : 720 pixels
Display aspect ratio : 16:9
Frame rate mode : Constant
Frame rate : 30.000 fps
Color space : YUV
Chroma subsampling : 4:2:0
Bit depth : 8 bits
Scan type : Progressive
Bits/(Pixel*Frame) : 0.020
Stream size : 28.5 MiB (90%)
Writing library : Zencoder Video Encoding System
Encoded date : UTC 2015-08-05 01:24:36
Tagged date : UTC 2015-08-05 01:25:08
Color range : Limited
Color primaries : BT.709
Transfer characteristics : BT.709
Matrix coefficients : BT.709
Audio
ID : 2
Format : AAC
Format/Info : Advanced Audio Codec
Format profile : LC
Codec ID : 40
Duration : 7mn 12s
Bit rate mode : Variable
Bit rate : 56.0 Kbps
Maximum bit rate : 68.7 Kbps
Channel(s) : 2 channels
Channel positions : Front: L R
Sampling rate : 44.1 KHz
Frame rate : 43.066 fps (1024 spf)
Compression mode : Lossy
Stream size : 2.89 MiB (9%)
Encoded date : UTC 2015-08-05 01:24:36
Tagged date : UTC 2015-08-05 01:25:08
General
Complete name : 11 Sending and Receiving Push Notifications\008 Sending Push Notifications from your Swift App.mp4
Format : MPEG-4
Format profile : Base Media
Codec ID : isom (isom/avc1/mp42)
File size : 36.4 MiB
Duration : 7mn 59s
Overall bit rate mode : Variable
Overall bit rate : 636 Kbps
Encoded date : UTC 2015-08-05 01:31:44
Tagged date : UTC 2015-08-05 01:31:44
Video
ID : 1
Format : AVC
Format/Info : Advanced Video Codec
Format profile : Baseline@L3.1
Format settings, CABAC : No
Format settings, ReFrames : 3 frames
Format settings, GOP : M=1, N=50
Codec ID : avc1
Codec ID/Info : Advanced Video Coding
Duration : 7mn 59s
Bit rate : 580 Kbps
Maximum bit rate : 5 363 Kbps
Width : 1 280 pixels
Height : 720 pixels
Display aspect ratio : 16:9
Frame rate mode : Constant
Frame rate : 30.000 fps
Color space : YUV
Chroma subsampling : 4:2:0
Bit depth : 8 bits
Scan type : Progressive
Bits/(Pixel*Frame) : 0.021
Stream size : 33.2 MiB (91%)
Writing library : Zencoder Video Encoding System
Encoded date : UTC 2015-08-05 01:31:07
Tagged date : UTC 2015-08-05 01:31:44
Color range : Limited
Color primaries : BT.709
Transfer characteristics : BT.709
Matrix coefficients : BT.709
Audio
ID : 2
Format : AAC
Format/Info : Advanced Audio Codec
Format profile : LC
Codec ID : 40
Duration : 7mn 59s
Bit rate mode : Variable
Bit rate : 54.1 Kbps
Maximum bit rate : 70.7 Kbps
Channel(s) : 2 channels
Channel positions : Front: L R
Sampling rate : 44.1 KHz
Frame rate : 43.066 fps (1024 spf)
Compression mode : Lossy
Stream size : 3.10 MiB (9%)
Encoded date : UTC 2015-08-05 01:31:07
Tagged date : UTC 2015-08-05 01:31:44
General
Complete name : 11 Sending and Receiving Push Notifications\007 Sending Push Message from PHP script.mp4
Format : MPEG-4
Format profile : Base Media
Codec ID : isom (isom/avc1/mp42)
File size : 23.9 MiB
Duration : 5mn 32s
Overall bit rate mode : Variable
Overall bit rate : 603 Kbps
Encoded date : UTC 2015-08-05 01:15:21
Tagged date : UTC 2015-08-05 01:15:21
Video
ID : 1
Format : AVC
Format/Info : Advanced Video Codec
Format profile : Baseline@L3.1
Format settings, CABAC : No
Format settings, ReFrames : 3 frames
Format settings, GOP : M=1, N=50
Codec ID : avc1
Codec ID/Info : Advanced Video Coding
Duration : 5mn 32s
Bit rate : 541 Kbps
Maximum bit rate : 1 808 Kbps
Width : 1 280 pixels
Height : 720 pixels
Display aspect ratio : 16:9
Frame rate mode : Constant
Frame rate : 30.000 fps
Color space : YUV
Chroma subsampling : 4:2:0
Bit depth : 8 bits
Scan type : Progressive
Bits/(Pixel*Frame) : 0.020
Stream size : 21.5 MiB (90%)
Writing library : Zencoder Video Encoding System
Encoded date : UTC 2015-08-05 01:14:57
Tagged date : UTC 2015-08-05 01:15:21
Color range : Limited
Color primaries : BT.709
Transfer characteristics : BT.709
Matrix coefficients : BT.709
Audio
ID : 2
Format : AAC
Format/Info : Advanced Audio Codec
Format profile : LC
Codec ID : 40
Duration : 5mn 32s
Bit rate mode : Variable
Bit rate : 58.8 Kbps
Maximum bit rate : 69.0 Kbps
Channel(s) : 2 channels
Channel positions : Front: L R
Sampling rate : 44.1 KHz
Frame rate : 43.066 fps (1024 spf)
Compression mode : Lossy
Stream size : 2.33 MiB (10%)
Encoded date : UTC 2015-08-05 01:14:57
Tagged date : UTC 2015-08-05 01:15:21
General
Complete name : 11 Sending and Receiving Push Notifications\006 Sending Push Notifications with Parse Rest API.mp4
Format : MPEG-4
Format profile : Base Media
Codec ID : isom (isom/avc1/mp42)
File size : 29.7 MiB
Duration : 6mn 24s
Overall bit rate mode : Variable
Overall bit rate : 649 Kbps
Encoded date : UTC 2015-08-05 01:14:21
Tagged date : UTC 2015-08-05 01:14:21
Video
ID : 1
Format : AVC
Format/Info : Advanced Video Codec
Format profile : Baseline@L3.1
Format settings, CABAC : No
Format settings, ReFrames : 3 frames
Format settings, GOP : M=1, N=50
Codec ID : avc1
Codec ID/Info : Advanced Video Coding
Duration : 6mn 24s
Bit rate : 592 Kbps
Maximum bit rate : 4 385 Kbps
Width : 1 280 pixels
Height : 720 pixels
Display aspect ratio : 16:9
Frame rate mode : Constant
Frame rate : 30.000 fps
Color space : YUV
Chroma subsampling : 4:2:0
Bit depth : 8 bits
Scan type : Progressive
Bits/(Pixel*Frame) : 0.021
Stream size : 27.1 MiB (91%)
Writing library : Zencoder Video Encoding System
Encoded date : UTC 2015-08-05 01:13:55
Tagged date : UTC 2015-08-05 01:14:21
Color range : Limited
Color primaries : BT.709
Transfer characteristics : BT.709
Matrix coefficients : BT.709
Audio
ID : 2
Format : AAC
Format/Info : Advanced Audio Codec
Format profile : LC
Codec ID : 40
Duration : 6mn 24s
Bit rate mode : Variable
Bit rate : 54.7 Kbps
Maximum bit rate : 67.3 Kbps
Channel(s) : 2 channels
Channel positions : Front: L R
Sampling rate : 44.1 KHz
Frame rate : 43.066 fps (1024 spf)
Compression mode : Lossy
Stream size : 2.51 MiB (8%)
Encoded date : UTC 2015-08-05 01:13:55
Tagged date : UTC 2015-08-05 01:14:21
General
Complete name : 11 Sending and Receiving Push Notifications\005 Checking if Push Messages work. Sending Push Message from Parse Cloud..mp4
Format : MPEG-4
Format profile : Base Media
Codec ID : isom (isom/avc1/mp42)
File size : 32.5 MiB
Duration : 6mn 21s
Overall bit rate mode : Variable
Overall bit rate : 715 Kbps
Encoded date : UTC 2015-08-05 01:04:40
Tagged date : UTC 2015-08-05 01:04:40
Video
ID : 1
Format : AVC
Format/Info : Advanced Video Codec
Format profile : Baseline@L3.1
Format settings, CABAC : No
Format settings, ReFrames : 3 frames
Format settings, GOP : M=1, N=50
Codec ID : avc1
Codec ID/Info : Advanced Video Coding
Duration : 6mn 21s
Bit rate : 652 Kbps
Maximum bit rate : 4 274 Kbps
Width : 1 152 pixels
Height : 720 pixels
Display aspect ratio : 16:10
Frame rate mode : Constant
Frame rate : 30.000 fps
Color space : YUV
Chroma subsampling : 4:2:0
Bit depth : 8 bits
Scan type : Progressive
Bits/(Pixel*Frame) : 0.026
Stream size : 29.7 MiB (91%)
Writing library : Zencoder Video Encoding System
Encoded date : UTC 2015-08-05 01:03:51
Tagged date : UTC 2015-08-05 01:04:40
Color range : Limited
Color primaries : BT.709
Transfer characteristics : BT.709
Matrix coefficients : BT.709
Audio
ID : 2
Format : AAC
Format/Info : Advanced Audio Codec
Format profile : LC
Codec ID : 40
Duration : 6mn 21s
Bit rate mode : Variable
Bit rate : 60.1 Kbps
Maximum bit rate : 66.0 Kbps
Channel(s) : 2 channels
Channel positions : Front: L R
Sampling rate : 44.1 KHz
Frame rate : 43.066 fps (1024 spf)
Compression mode : Lossy
Stream size : 2.73 MiB (8%)
Encoded date : UTC 2015-08-05 01:03:51
Tagged date : UTC 2015-08-05 01:04:40
General
Complete name : 11 Sending and Receiving Push Notifications\004 Configure mobile app to support push notifications.mp4
Format : MPEG-4
Format profile : Base Media
Codec ID : isom (isom/avc1/mp42)
File size : 31.2 MiB
Duration : 5mn 25s
Overall bit rate mode : Variable
Overall bit rate : 805 Kbps
Encoded date : UTC 2015-08-05 01:02:34
Tagged date : UTC 2015-08-05 01:02:34
Video
ID : 1
Format : AVC
Format/Info : Advanced Video Codec
Format profile : Baseline@L3.1
Format settings, CABAC : No
Format settings, ReFrames : 3 frames
Format settings, GOP : M=1, N=50
Codec ID : avc1
Codec ID/Info : Advanced Video Coding
Duration : 5mn 25s
Bit rate : 744 Kbps
Maximum bit rate : 2 470 Kbps
Width : 1 280 pixels
Height : 720 pixels
Display aspect ratio : 16:9
Frame rate mode : Constant
Frame rate : 30.000 fps
Color space : YUV
Chroma subsampling : 4:2:0
Bit depth : 8 bits
Scan type : Progressive
Bits/(Pixel*Frame) : 0.027
Stream size : 28.9 MiB (92%)
Writing library : Zencoder Video Encoding System
Encoded date : UTC 2015-08-05 01:02:09
Tagged date : UTC 2015-08-05 01:02:34
Color range : Limited
Color primaries : BT.709
Transfer characteristics : BT.709
Matrix coefficients : BT.709
Audio
ID : 2
Format : AAC
Format/Info : Advanced Audio Codec
Format profile : LC
Codec ID : 40
Duration : 5mn 25s
Bit rate mode : Variable
Bit rate : 57.9 Kbps
Maximum bit rate : 68.8 Kbps
Channel(s) : 2 channels
Channel positions : Front: L R
Sampling rate : 44.1 KHz
Frame rate : 43.066 fps (1024 spf)
Compression mode : Lossy
Stream size : 2.25 MiB (7%)
Encoded date : UTC 2015-08-05 01:02:09
Tagged date : UTC 2015-08-05 01:02:34
General
Complete name : 11 Sending and Receiving Push Notifications\003 Enable Push Notifications in your Parse account.mp4
Format : MPEG-4
Format profile : Base Media
Codec ID : isom (isom/avc1/mp42)
File size : 8.86 MiB
Duration : 3mn 5s
Overall bit rate mode : Variable
Overall bit rate : 400 Kbps
Encoded date : UTC 2015-08-05 00:40:34
Tagged date : UTC 2015-08-05 00:40:34
Video
ID : 1
Format : AVC
Format/Info : Advanced Video Codec
Format profile : Baseline@L3.1
Format settings, CABAC : No
Format settings, ReFrames : 3 frames
Format settings, GOP : M=1, N=50
Codec ID : avc1
Codec ID/Info : Advanced Video Coding
Duration : 3mn 5s
Bit rate : 341 Kbps
Maximum bit rate : 1 288 Kbps
Width : 1 280 pixels
Height : 720 pixels
Display aspect ratio : 16:9
Frame rate mode : Constant
Frame rate : 30.000 fps
Color space : YUV
Chroma subsampling : 4:2:0
Bit depth : 8 bits
Scan type : Progressive
Bits/(Pixel*Frame) : 0.012
Stream size : 7.56 MiB (85%)
Writing library : Zencoder Video Encoding System
Encoded date : UTC 2015-08-05 00:40:21
Tagged date : UTC 2015-08-05 00:40:34
Color range : Limited
Color primaries : BT.709
Transfer characteristics : BT.709
Matrix coefficients : BT.709
Audio
ID : 2
Format : AAC
Format/Info : Advanced Audio Codec
Format profile : LC
Codec ID : 40
Duration : 3mn 5s
Bit rate mode : Variable
Bit rate : 56.1 Kbps
Maximum bit rate : 67.6 Kbps
Channel(s) : 2 channels
Channel positions : Front: L R
Sampling rate : 44.1 KHz
Frame rate : 43.066 fps (1024 spf)
Compression mode : Lossy
Stream size : 1.24 MiB (14%)
Encoded date : UTC 2015-08-05 00:40:21
Tagged date : UTC 2015-08-05 00:40:34
General
Complete name : 11 Sending and Receiving Push Notifications\002 Configure Apple Development and adHoc Provisioning Profiles.mp4
Format : MPEG-4
Format profile : Base Media
Codec ID : isom (isom/avc1/mp42)
File size : 51.0 MiB
Duration : 10mn 31s
Overall bit rate mode : Variable
Overall bit rate : 678 Kbps
Encoded date : UTC 2015-08-05 00:34:03
Tagged date : UTC 2015-08-05 00:34:03
Video
ID : 1
Format : AVC
Format/Info : Advanced Video Codec
Format profile : Baseline@L3.1
Format settings, CABAC : No
Format settings, ReFrames : 3 frames
Format settings, GOP : M=1, N=50
Codec ID : avc1
Codec ID/Info : Advanced Video Coding
Duration : 10mn 31s
Bit rate : 623 Kbps
Maximum bit rate : 4 248 Kbps
Width : 1 280 pixels
Height : 720 pixels
Display aspect ratio : 16:9
Frame rate mode : Constant
Frame rate : 30.000 fps
Color space : YUV
Chroma subsampling : 4:2:0
Bit depth : 8 bits
Scan type : Progressive
Bits/(Pixel*Frame) : 0.023
Stream size : 46.9 MiB (92%)
Writing library : Zencoder Video Encoding System
Encoded date : UTC 2015-08-05 00:33:21
Tagged date : UTC 2015-08-05 00:34:03
Color range : Limited
Color primaries : BT.709
Transfer characteristics : BT.709
Matrix coefficients : BT.709
Audio
ID : 2
Format : AAC
Format/Info : Advanced Audio Codec
Format profile : LC
Codec ID : 40
Duration : 10mn 31s
Bit rate mode : Variable
Bit rate : 52.8 Kbps
Maximum bit rate : 69.0 Kbps
Channel(s) : 2 channels
Channel positions : Front: L R
Sampling rate : 44.1 KHz
Frame rate : 43.066 fps (1024 spf)
Compression mode : Lossy
Stream size : 3.97 MiB (8%)
Encoded date : UTC 2015-08-05 00:33:21
Tagged date : UTC 2015-08-05 00:34:03
General
Complete name : 11 Sending and Receiving Push Notifications\001 Generating Apple Push Certificates.mp4
Format : MPEG-4
Format profile : Base Media
Codec ID : isom (isom/avc1/mp42)
File size : 42.9 MiB
Duration : 9mn 24s
Overall bit rate mode : Variable
Overall bit rate : 637 Kbps
Encoded date : UTC 2015-08-05 00:20:20
Tagged date : UTC 2015-08-05 00:20:20
Video
ID : 1
Format : AVC
Format/Info : Advanced Video Codec
Format profile : Baseline@L3.1
Format settings, CABAC : No
Format settings, ReFrames : 3 frames
Format settings, GOP : M=1, N=50
Codec ID : avc1
Codec ID/Info : Advanced Video Coding
Duration : 9mn 24s
Bit rate : 580 Kbps
Maximum bit rate : 5 541 Kbps
Width : 1 280 pixels
Height : 720 pixels
Display aspect ratio : 16:9
Frame rate mode : Constant
Frame rate : 30.000 fps
Color space : YUV
Chroma subsampling : 4:2:0
Bit depth : 8 bits
Scan type : Progressive
Bits/(Pixel*Frame) : 0.021
Stream size : 39.0 MiB (91%)
Writing library : Zencoder Video Encoding System
Encoded date : UTC 2015-08-05 00:19:30
Tagged date : UTC 2015-08-05 00:20:21
Color range : Limited
Color primaries : BT.709
Transfer characteristics : BT.709
Matrix coefficients : BT.709
Audio
ID : 2
Format : AAC
Format/Info : Advanced Audio Codec
Format profile : LC
Codec ID : 40
Duration : 9mn 24s
Bit rate mode : Variable
Bit rate : 54.5 Kbps
Maximum bit rate : 66.9 Kbps
Channel(s) : 2 channels
Channel positions : Front: L R
Sampling rate : 44.1 KHz
Frame rate : 43.066 fps (1024 spf)
Compression mode : Lossy
Stream size : 3.67 MiB (9%)
Encoded date : UTC 2015-08-05 00:19:30
Tagged date : UTC 2015-08-05 00:20:21
General
Complete name : 10 Social sign in Sign in with Twitter account\005 Save Twitter user details in Parse.mp4
Format : MPEG-4
Format profile : Base Media
Codec ID : isom (isom/avc1/mp42)
File size : 37.4 MiB
Duration : 6mn 48s
Overall bit rate mode : Variable
Overall bit rate : 768 Kbps
Encoded date : UTC 2015-08-13 02:23:34
Tagged date : UTC 2015-08-13 02:23:34
Video
ID : 1
Format : AVC
Format/Info : Advanced Video Codec
Format profile : Baseline@L3.1
Format settings, CABAC : No
Format settings, ReFrames : 3 frames
Format settings, GOP : M=1, N=50
Codec ID : avc1
Codec ID/Info : Advanced Video Coding
Duration : 6mn 48s
Bit rate : 713 Kbps
Maximum bit rate : 8 072 Kbps
Width : 1 280 pixels
Height : 720 pixels
Display aspect ratio : 16:9
Frame rate mode : Constant
Frame rate : 30.000 fps
Color space : YUV
Chroma subsampling : 4:2:0
Bit depth : 8 bits
Scan type : Progressive
Bits/(Pixel*Frame) : 0.026
Stream size : 34.7 MiB (93%)
Writing library : Zencoder Video Encoding System
Encoded date : UTC 2015-08-13 02:23:02
Tagged date : UTC 2015-08-13 02:23:34
Color range : Limited
Color primaries : BT.709
Transfer characteristics : BT.709
Matrix coefficients : BT.709
Audio
ID : 2
Format : AAC
Format/Info : Advanced Audio Codec
Format profile : LC
Codec ID : 40
Duration : 6mn 48s
Bit rate mode : Variable
Bit rate : 52.5 Kbps
Maximum bit rate : 69.4 Kbps
Channel(s) : 2 channels
Channel positions : Front: L R
Sampling rate : 44.1 KHz
Frame rate : 43.066 fps (1024 spf)
Compression mode : Lossy
Stream size : 2.55 MiB (7%)
Encoded date : UTC 2015-08-13 02:23:02
Tagged date : UTC 2015-08-13 02:23:34
General
Complete name : 10 Social sign in Sign in with Twitter account\004 Load Twitter user profile details.mp4
Format : MPEG-4
Format profile : Base Media
Codec ID : isom (isom/avc1/mp42)
File size : 41.8 MiB
Duration : 10mn 50s
Overall bit rate mode : Variable
Overall bit rate : 538 Kbps
Encoded date : UTC 2015-08-13 02:23:52
Tagged date : UTC 2015-08-13 02:23:52
Video
ID : 1
Format : AVC
Format/Info : Advanced Video Codec
Format profile : Baseline@L3.1
Format settings, CABAC : No
Format settings, ReFrames : 3 frames
Format settings, GOP : M=1, N=50
Codec ID : avc1
Codec ID/Info : Advanced Video Coding
Duration : 10mn 50s
Bit rate : 479 Kbps
Maximum bit rate : 1 586 Kbps
Width : 1 280 pixels
Height : 720 pixels
Display aspect ratio : 16:9
Frame rate mode : Constant
Frame rate : 30.000 fps
Color space : YUV
Chroma subsampling : 4:2:0
Bit depth : 8 bits
Scan type : Progressive
Bits/(Pixel*Frame) : 0.017
Stream size : 37.2 MiB (89%)
Writing library : Zencoder Video Encoding System
Encoded date : UTC 2015-08-13 02:23:01
Tagged date : UTC 2015-08-13 02:23:52
Color range : Limited
Color primaries : BT.709
Transfer characteristics : BT.709
Matrix coefficients : BT.709
Audio
ID : 2
Format : AAC
Format/Info : Advanced Audio Codec
Format profile : LC
Codec ID : 40
Duration : 10mn 50s
Bit rate mode : Variable
Bit rate : 56.7 Kbps
Maximum bit rate : 67.4 Kbps
Channel(s) : 2 channels
Channel positions : Front: L R
Sampling rate : 44.1 KHz
Frame rate : 43.066 fps (1024 spf)
Compression mode : Lossy
Stream size : 4.40 MiB (11%)
Encoded date : UTC 2015-08-13 02:23:01
Tagged date : UTC 2015-08-13 02:23:52
General
Complete name : 10 Social sign in Sign in with Twitter account\003 Implement Twitter Sign in.mp4
Format : MPEG-4
Format profile : Base Media
Codec ID : isom (isom/avc1/mp42)
File size : 10.8 MiB
Duration : 3mn 17s
Overall bit rate mode : Variable
Overall bit rate : 460 Kbps
Encoded date : UTC 2015-08-13 02:12:05
Tagged date : UTC 2015-08-13 02:12:05
Video
ID : 1
Format : AVC
Format/Info : Advanced Video Codec
Format profile : Baseline@L3.1
Format settings, CABAC : No
Format settings, ReFrames : 3 frames
Codec ID : avc1
Codec ID/Info : Advanced Video Coding
Duration : 3mn 17s
Bit rate : 400 Kbps
Maximum bit rate : 1 032 Kbps
Width : 1 280 pixels
Height : 720 pixels
Display aspect ratio : 16:9
Frame rate mode : Constant
Frame rate : 30.000 fps
Color space : YUV
Chroma subsampling : 4:2:0
Bit depth : 8 bits
Scan type : Progressive
Bits/(Pixel*Frame) : 0.014
Stream size : 9.40 MiB (87%)
Writing library : Zencoder Video Encoding System
Encoded date : UTC 2015-08-13 02:11:47
Tagged date : UTC 2015-08-13 02:12:05
Color range : Limited
Color primaries : BT.709
Transfer characteristics : BT.709
Matrix coefficients : BT.709
Audio
ID : 2
Format : AAC
Format/Info : Advanced Audio Codec
Format profile : LC
Codec ID : 40
Duration : 3mn 17s
Bit rate mode : Variable
Bit rate : 57.8 Kbps
Maximum bit rate : 69.5 Kbps
Channel(s) : 2 channels
Channel positions : Front: L R
Sampling rate : 44.1 KHz
Frame rate : 43.066 fps (1024 spf)
Compression mode : Lossy
Stream size : 1.36 MiB (13%)
Encoded date : UTC 2015-08-13 02:11:47
Tagged date : UTC 2015-08-13 02:12:05
General
Complete name : 10 Social sign in Sign in with Twitter account\002 Create new Sign in with Twitter account button.mp4
Format : MPEG-4
Format profile : Base Media
Codec ID : isom (isom/avc1/mp42)
File size : 5.48 MiB
Duration : 1mn 40s
Overall bit rate mode : Variable
Overall bit rate : 457 Kbps
Encoded date : UTC 2015-08-13 02:07:07
Tagged date : UTC 2015-08-13 02:07:07
Video
ID : 1
Format : AVC
Format/Info : Advanced Video Codec
Format profile : Baseline@L3.1
Format settings, CABAC : No
Format settings, ReFrames : 3 frames
Format settings, GOP : M=1, N=50
Codec ID : avc1
Codec ID/Info : Advanced Video Coding
Duration : 1mn 40s
Bit rate : 400 Kbps
Maximum bit rate : 2 050 Kbps
Width : 1 280 pixels
Height : 720 pixels
Display aspect ratio : 16:9
Frame rate mode : Constant
Frame rate : 30.000 fps
Color space : YUV
Chroma subsampling : 4:2:0
Bit depth : 8 bits
Scan type : Progressive
Bits/(Pixel*Frame) : 0.014
Stream size : 4.79 MiB (87%)
Writing library : Zencoder Video Encoding System
Encoded date : UTC 2015-08-13 02:06:52
Tagged date : UTC 2015-08-13 02:07:07
Color range : Limited
Color primaries : BT.709
Transfer characteristics : BT.709
Matrix coefficients : BT.709
Audio
ID : 2
Format : AAC
Format/Info : Advanced Audio Codec
Format profile : LC
Codec ID : 40
Duration : 1mn 40s
Bit rate mode : Variable
Bit rate : 54.8 Kbps
Maximum bit rate : 68.7 Kbps
Channel(s) : 2 channels
Channel positions : Front: L R
Sampling rate : 44.1 KHz
Frame rate : 43.066 fps (1024 spf)
Compression mode : Lossy
Stream size : 673 KiB (12%)
Encoded date : UTC 2015-08-13 02:06:52
Tagged date : UTC 2015-08-13 02:07:07
General
Complete name : 10 Social sign in Sign in with Twitter account\001 Create Twitter App and configure AppDelegate to support Twitter Sign in.mp4
Format : MPEG-4
Format profile : Base Media
Codec ID : isom (isom/avc1/mp42)
File size : 26.8 MiB
Duration : 6mn 26s
Overall bit rate mode : Variable
Overall bit rate : 581 Kbps
Encoded date : UTC 2015-08-13 02:09:57
Tagged date : UTC 2015-08-13 02:09:57
Video
ID : 1
Format : AVC
Format/Info : Advanced Video Codec
Format profile : Baseline@L3.1
Format settings, CABAC : No
Format settings, ReFrames : 3 frames
Format settings, GOP : M=1, N=50
Codec ID : avc1
Codec ID/Info : Advanced Video Coding
Duration : 6mn 26s
Bit rate : 523 Kbps
Maximum bit rate : 5 480 Kbps
Width : 1 280 pixels
Height : 720 pixels
Display aspect ratio : 16:9
Frame rate mode : Constant
Frame rate : 30.000 fps
Color space : YUV
Chroma subsampling : 4:2:0
Bit depth : 8 bits
Scan type : Progressive
Bits/(Pixel*Frame) : 0.019
Stream size : 24.1 MiB (90%)
Writing library : Zencoder Video Encoding System
Encoded date : UTC 2015-08-13 02:09:32
Tagged date : UTC 2015-08-13 02:09:57
Color range : Limited
Color primaries : BT.709
Transfer characteristics : BT.709
Matrix coefficients : BT.709
Audio
ID : 2
Format : AAC
Format/Info : Advanced Audio Codec
Format profile : LC
Codec ID : 40
Duration : 6mn 26s
Bit rate mode : Variable
Bit rate : 55.0 Kbps
Maximum bit rate : 67.6 Kbps
Channel(s) : 2 channels
Channel positions : Front: L R
Sampling rate : 44.1 KHz
Frame rate : 43.066 fps (1024 spf)
Compression mode : Lossy
Stream size : 2.53 MiB (9%)
Encoded date : UTC 2015-08-13 02:09:32
Tagged date : UTC 2015-08-13 02:09:57
General
Complete name : 09 Social Sign Log in with Facebook account\006 Save Facebook user details in Parse cloud and complete this feature.mp4
Format : MPEG-4
Format profile : Base Media
Codec ID : isom (isom/avc1/mp42)
File size : 54.7 MiB
Duration : 10mn 55s
Overall bit rate mode : Variable
Overall bit rate : 700 Kbps
Encoded date : UTC 2015-08-08 20:09:17
Tagged date : UTC 2015-08-08 20:09:17
Video
ID : 1
Format : AVC
Format/Info : Advanced Video Codec
Format profile : Baseline@L3.1
Format settings, CABAC : No
Format settings, ReFrames : 3 frames
Format settings, GOP : M=1, N=50
Codec ID : avc1
Codec ID/Info : Advanced Video Coding
Duration : 10mn 55s
Bit rate : 641 Kbps
Maximum bit rate : 6 221 Kbps
Width : 1 280 pixels
Height : 720 pixels
Display aspect ratio : 16:9
Frame rate mode : Constant
Frame rate : 30.000 fps
Color space : YUV
Chroma subsampling : 4:2:0
Bit depth : 8 bits
Scan type : Progressive
Bits/(Pixel*Frame) : 0.023
Stream size : 50.1 MiB (92%)
Writing library : Zencoder Video Encoding System
Encoded date : UTC 2015-08-08 20:08:23
Tagged date : UTC 2015-08-08 20:09:17
Color range : Limited
Color primaries : BT.709
Transfer characteristics : BT.709
Matrix coefficients : BT.709
Audio
ID : 2
Format : AAC
Format/Info : Advanced Audio Codec
Format profile : LC
Codec ID : 40
Duration : 10mn 55s
Bit rate mode : Variable
Bit rate : 56.4 Kbps
Maximum bit rate : 69.4 Kbps
Channel(s) : 2 channels
Channel positions : Front: L R
Sampling rate : 44.1 KHz
Frame rate : 43.066 fps (1024 spf)
Compression mode : Lossy
Stream size : 4.41 MiB (8%)
Encoded date : UTC 2015-08-08 20:08:23
Tagged date : UTC 2015-08-08 20:09:17
General
Complete name : 09 Social Sign Log in with Facebook account\005 Implement Facebook Graph API Request to load User profile details.mp4
Format : MPEG-4
Format profile : Base Media
Codec ID : isom (isom/avc1/mp42)
File size : 36.6 MiB
Duration : 8mn 3s
Overall bit rate mode : Variable
Overall bit rate : 635 Kbps
Encoded date : UTC 2015-08-08 20:20:59
Tagged date : UTC 2015-08-08 20:20:59
Video
ID : 1
Format : AVC
Format/Info : Advanced Video Codec
Format profile : Baseline@L3.1
Format settings, CABAC : No
Format settings, ReFrames : 3 frames
Format settings, GOP : M=1, N=50
Codec ID : avc1
Codec ID/Info : Advanced Video Coding
Duration : 8mn 3s
Bit rate : 576 Kbps
Maximum bit rate : 4 266 Kbps
Width : 1 280 pixels
Height : 720 pixels
Display aspect ratio : 16:9
Frame rate mode : Constant
Frame rate : 30.000 fps
Color space : YUV
Chroma subsampling : 4:2:0
Bit depth : 8 bits
Scan type : Progressive
Bits/(Pixel*Frame) : 0.021
Stream size : 33.2 MiB (91%)
Writing library : Zencoder Video Encoding System
Encoded date : UTC 2015-08-08 20:20:18
Tagged date : UTC 2015-08-08 20:20:59
Color range : Limited
Color primaries : BT.709
Transfer characteristics : BT.709
Matrix coefficients : BT.709
Audio
ID : 2
Format : AAC
Format/Info : Advanced Audio Codec
Format profile : LC
Codec ID : 40
Duration : 8mn 3s
Bit rate mode : Variable
Bit rate : 56.6 Kbps
Maximum bit rate : 69.4 Kbps
Channel(s) : 2 channels
Channel positions : Front: L R
Sampling rate : 44.1 KHz
Frame rate : 43.066 fps (1024 spf)
Compression mode : Lossy
Stream size : 3.26 MiB (9%)
Encoded date : UTC 2015-08-08 20:20:18
Tagged date : UTC 2015-08-08 20:20:59
General
Complete name : 09 Social Sign Log in with Facebook account\004 Implement Facebook log in in background with Permissions.mp4
Format : MPEG-4
Format profile : Base Media
Codec ID : isom (isom/avc1/mp42)
File size : 48.9 MiB
Duration : 9mn 57s
Overall bit rate mode : Variable
Overall bit rate : 686 Kbps
Encoded date : UTC 2015-08-08 20:04:00
Tagged date : UTC 2015-08-08 20:04:00
Video
ID : 1
Format : AVC
Format/Info : Advanced Video Codec
Format profile : Baseline@L3.1
Format settings, CABAC : No
Format settings, ReFrames : 3 frames
Format settings, GOP : M=1, N=50
Codec ID : avc1
Codec ID/Info : Advanced Video Coding
Duration : 9mn 57s
Bit rate : 629 Kbps
Maximum bit rate : 4 685 Kbps
Width : 1 280 pixels
Height : 720 pixels
Display aspect ratio : 16:9
Frame rate mode : Constant
Frame rate : 30.000 fps
Color space : YUV
Chroma subsampling : 4:2:0
Bit depth : 8 bits
Scan type : Progressive
Bits/(Pixel*Frame) : 0.023
Stream size : 44.8 MiB (92%)
Writing library : Zencoder Video Encoding System
Encoded date : UTC 2015-08-08 20:03:22
Tagged date : UTC 2015-08-08 20:04:01
Color range : Limited
Color primaries : BT.709
Transfer characteristics : BT.709
Matrix coefficients : BT.709
Audio
ID : 2
Format : AAC
Format/Info : Advanced Audio Codec
Format profile : LC
Codec ID : 40
Duration : 9mn 57s
Bit rate mode : Variable
Bit rate : 55.1 Kbps
Maximum bit rate : 69.6 Kbps
Channel(s) : 2 channels
Channel positions : Front: L R
Sampling rate : 44.1 KHz
Frame rate : 43.066 fps (1024 spf)
Compression mode : Lossy
Stream size : 3.93 MiB (8%)
Encoded date : UTC 2015-08-08 20:03:22
Tagged date : UTC 2015-08-08 20:04:01
General
Complete name : 09 Social Sign Log in with Facebook account\003 Create new button Sign in with Facebook account.mp4
Format : MPEG-4
Format profile : Base Media
Codec ID : isom (isom/avc1/mp42)
File size : 11.1 MiB
Duration : 2mn 8s
Overall bit rate mode : Variable
Overall bit rate : 724 Kbps
Encoded date : UTC 2015-08-08 19:57:28
Tagged date : UTC 2015-08-08 19:57:28
Video
ID : 1
Format : AVC
Format/Info : Advanced Video Codec
Format profile : Baseline@L3.1
Format settings, CABAC : No
Format settings, ReFrames : 3 frames
Format settings, GOP : M=1, N=50
Codec ID : avc1
Codec ID/Info : Advanced Video Coding
Duration : 2mn 8s
Bit rate : 668 Kbps
Maximum bit rate : 4 835 Kbps
Width : 1 280 pixels
Height : 720 pixels
Display aspect ratio : 16:9
Frame rate mode : Constant
Frame rate : 30.000 fps
Color space : YUV
Chroma subsampling : 4:2:0
Bit depth : 8 bits
Scan type : Progressive
Bits/(Pixel*Frame) : 0.024
Stream size : 10.2 MiB (92%)
Writing library : Zencoder Video Encoding System
Encoded date : UTC 2015-08-08 19:57:14
Tagged date : UTC 2015-08-08 19:57:28
Color range : Limited
Color primaries : BT.709
Transfer characteristics : BT.709
Matrix coefficients : BT.709
Audio
ID : 2
Format : AAC
Format/Info : Advanced Audio Codec
Format profile : LC
Codec ID : 40
Duration : 2mn 8s
Bit rate mode : Variable
Bit rate : 54.5 Kbps
Maximum bit rate : 67.5 Kbps
Channel(s) : 2 channels
Channel positions : Front: L R
Sampling rate : 44.1 KHz
Frame rate : 43.066 fps (1024 spf)
Compression mode : Lossy
Stream size : 855 KiB (8%)
Encoded date : UTC 2015-08-08 19:57:14
Tagged date : UTC 2015-08-08 19:57:28

Скриншоты


_________________
Показать сообщения:    

Текущее время: Сегодня 02:12

Часовой пояс: GMT



Вы не можете начинать темы
Вы не можете отвечать на сообщения
Вы не можете редактировать свои сообщения
Вы не можете удалять свои сообщения
Вы не можете голосовать в опросах
Вы не можете прикреплять файлы к сообщениям
Вы не можете скачивать файлы