Ивановский Торрент трекер
Яндекс.Погода
 

[Quote]
HUNTER

Удача Логана / Logan Lucky
Год выпуска: 2017
Страна: США
Жанр: Комедия, криминал
Продолжительность: 01:59:03
Перевод: Профессиональный (дублированный) | iTunes
Перевод: Одноголосый закадровый | В.Котов
Перевод: Профессиональный (дублированный) | Line
Субтитры: Английские
Оригинальная аудиодорожка: Английский
Режиссер: Стивен Содерберг
В ролях: Ченнинг Татум, Адам Драйвер, Дэниэл Крэйг, Райли Кио, Кэти Холмс, Джек Куэйд, Брин Глисон, Сет МакФарлейн, Себастьян Стэн, Хилари Суэнк
Описание: Уволили с работы? Подготовь самое дерзкое ограбление в истории! Джимми Логан молниеносно подбирает команду «специалистов», способных на такую аферу, и надеется выйти сухим из воды. Будь как Логан!
Доп. информация:
  • В основе энкода BD US.
  • За дорожку с украинским дубляжом спасибо трэкеру Hurtom.
    IMDB: 7.1
    Семпл: http://sendfile.su/1392806
    Качество: BDRip 720p (LoRD)
    Формат: MKV
    Видео кодек: H.264
    Аудио кодек: AC3, DTS
    Видео: 1280х536 (16:9), 23.976 fps, AVC, ~5000 kbps
    Аудио1: Русский AC3 5.1, 48 KHz, 384 kbps Профессиональный (дублированный) (iTunes)
    Аудио2: Русский DTS 5.1, 48 KHz, 1509 kbps Одноголосый закадровый (В.Котов)
    Аудио3: Украинский AC3 2.0, 48 KHz, 192 kbps Профессиональный (дублированный) (Line)
    Аудио4: Английский DTS 5.1, 48 KHz, 1509 kbps
    Субтитры: Английские (полные, полные(SDH))
    Главы: 26 (Без названий)

    MediaInfo

    General
    Unique ID : 135278369044066657922141336753885687979 (0x65C5AA8A9325984F686AA98E39D830AB)
    Complete name : E:\Video_HD\Logan.Lucky.2017.720p.BDrip.x264.ac3.dts.eng.rus.ukr.mkv
    Format : Matroska
    Format version : Version 4 / Version 2
    File size : 7.15 GiB
    Duration : 1 h 59 min
    Overall bit rate : 8 594 kb/s
    Movie name : Logan.Lucky.2017.720p.BDrip_LoRD
    Encoded date : UTC 2018-01-20 12:53:17
    Writing application : mkvmerge v20.0.0 ('I Am The Sun') 32-bit
    Writing library : libebml v1.3.5 + libmatroska v1.4.8
    Video
    ID : 1
    Format : AVC
    Format/Info : Advanced Video Codec
    Format profile : [email protected]
    Format settings : CABAC / 12 Ref Frames
    Format settings, CABAC : Yes
    Format settings, RefFrames : 12 frames
    Codec ID : V_MPEG4/ISO/AVC
    Duration : 1 h 59 min
    Bit rate : 5 000 kb/s
    Width : 1 280 pixels
    Height : 536 pixels
    Display aspect ratio : 2.40:1
    Frame rate mode : Constant
    Frame rate : 23.976 (24000/1001) FPS
    Color space : YUV
    Chroma subsampling : 4:2:0
    Bit depth : 8 bits
    Scan type : Progressive
    Bits/(Pixel*Frame) : 0.304
    Stream size : 4.16 GiB (58%)
    Title : Logan Lucky (2017)
    Writing library : x264 core 152 r2851+58 429492e t_mod_LoRD [email protected] X86_64
    Encoding settings : cabac=1 / ref=12 / deblock=1:-3:-3 / analyse=0x3:0x133 / me=umh / subme=10 / psy=1 / fade_compensate=0.00 / psy_rd=1.00:0.00 / mixed_ref=1 / me_range=32 / chroma_me=1 / trellis=2 / 8x8dct=1 / cqm=0 / deadzone=21,11 / fast_pskip=0 / chroma_qp_offset=-2 / threads=12 / lookahead_threads=2 / sliced_threads=0 / nr=0 / decimate=0 / interlaced=0 / bluray_compat=0 / constrained_intra=0 / fgo=0 / bframes=8 / b_pyramid=2 / b_adapt=2 / b_bias=0 / direct=3 / weightb=1 / open_gop=0 / weightp=2 / keyint=250 / keyint_min=23 / scenecut=40 / intra_refresh=0 / rc_lookahead=75 / rc=2pass / mbtree=0 / bitrate=5000 / ratetol=1.0 / qcomp=0.60 / qpmin=0:0:0 / qpmax=69:69:69 / qpstep=4 / cplxblur=20.0 / qblur=0.5 / vbv_maxrate=50000 / vbv_bufsize=62500 / nal_hrd=none / filler=0 / ip_ratio=1.20 / pb_ratio=1.20 / aq=3:0.80 / aq-sensitivity=10.00 / aq-factor=1.00:1.00:1.00 / aq2=0 / aq3=0
    Language : English
    Default : Yes
    Forced : No
    Audio #1
    ID : 2
    Format : AC-3
    Format/Info : Audio Coding 3
    Codec ID : A_AC3
    Duration : 1 h 59 min
    Bit rate mode : Constant
    Bit rate : 384 kb/s
    Channel(s) : 6 channels
    Channel positions : Front: L C R, Side: L R, LFE
    Sampling rate : 48.0 kHz
    Frame rate : 31.250 FPS (1536 SPF)
    Bit depth : 16 bits
    Compression mode : Lossy
    Stream size : 327 MiB (4%)
    Title : DUB iTunes
    Language : Russian
    Service kind : Complete Main
    Default : No
    Forced : No
    Audio #2
    ID : 3
    Format : DTS
    Format/Info : Digital Theater Systems
    Codec ID : A_DTS
    Duration : 1 h 59 min
    Bit rate mode : Constant
    Bit rate : 1 509 kb/s
    Channel(s) : 6 channels
    Channel positions : Front: L C R, Side: L R, LFE
    Sampling rate : 48.0 kHz
    Frame rate : 93.750 FPS (512 SPF)
    Bit depth : 24 bits
    Compression mode : Lossy
    Stream size : 1.25 GiB (18%)
    Title : AVO Kotov
    Language : Russian
    Default : No
    Forced : No
    Audio #3
    ID : 4
    Format : AC-3
    Format/Info : Audio Coding 3
    Codec ID : A_AC3
    Duration : 1 h 59 min
    Bit rate mode : Constant
    Bit rate : 192 kb/s
    Channel(s) : 2 channels
    Channel positions : Front: L R
    Sampling rate : 48.0 kHz
    Frame rate : 31.250 FPS (1536 SPF)
    Bit depth : 16 bits
    Compression mode : Lossy
    Stream size : 163 MiB (2%)
    Title : DUB Tretyakoff production
    Language : Ukrainian
    Service kind : Complete Main
    Default : No
    Forced : No
    Audio #4
    ID : 5
    Format : DTS
    Format/Info : Digital Theater Systems
    Codec ID : A_DTS
    Duration : 1 h 59 min
    Bit rate mode : Constant
    Bit rate : 1 509 kb/s
    Channel(s) : 6 channels
    Channel positions : Front: L C R, Side: L R, LFE
    Sampling rate : 48.0 kHz
    Frame rate : 93.750 FPS (512 SPF)
    Bit depth : 24 bits
    Compression mode : Lossy
    Stream size : 1.25 GiB (18%)
    Title : Original
    Language : English
    Default : No
    Forced : No
    Text #1
    ID : 6
    Format : UTF-8
    Codec ID : S_TEXT/UTF8
    Codec ID/Info : UTF-8 Plain Text
    Duration : 1 h 53 min
    Bit rate : 67 b/s
    Count of elements : 1653
    Stream size : 56.5 KiB (0%)
    Language : English
    Default : No
    Forced : No
    Text #2
    ID : 7
    Format : UTF-8
    Codec ID : S_TEXT/UTF8
    Codec ID/Info : UTF-8 Plain Text
    Duration : 1 h 57 min
    Bit rate : 70 b/s
    Count of elements : 1752
    Stream size : 60.8 KiB (0%)
    Title : SDH
    Language : English
    Default : No
    Forced : No
    Menu
    00:00:00.000 : en:Chapter 1
    00:05:41.800 : en:Chapter 2
    00:07:33.203 : en:Chapter 3
    00:10:40.932 : en:Chapter 4
    00:16:24.025 : en:Chapter 5
    00:21:23.282 : en:Chapter 6
    00:29:08.747 : en:Chapter 7
    00:36:03.703 : en:Chapter 8
    00:41:49.424 : en:Chapter 9
    00:47:11.078 : en:Chapter 10
    00:50:08.881 : en:Chapter 11
    00:54:40.527 : en:Chapter 12
    00:57:27.152 : en:Chapter 13
    00:59:16.470 : en:Chapter 14
    01:04:37.290 : en:Chapter 15
    01:07:27.877 : en:Chapter 16
    01:12:12.995 : en:Chapter 17
    01:17:50.249 : en:Chapter 18
    01:19:20.422 : en:Chapter 19
    01:24:02.913 : en:Chapter 20
    01:28:33.099 : en:Chapter 21
    01:32:41.514 : en:Chapter 22
    01:42:27.433 : en:Chapter 23
    01:46:07.653 : en:Chapter 24
    01:50:50.936 : en:Chapter 25
    01:54:55.263 : en:Chapter 26

    Скриншоты сравнения:

    Source vs LoRD




    Скриншоты:


    Дополнительно:

    Перевод Вячеслава Котова доступен благодаря: Ananerbe
    Сборка звука: mihaildns


  • Display posts:    

    Current time is: 14-Jul 10:27

    All times are UTC ± 0


    You cannot post new topics in this forum
    You cannot reply to topics in this forum
    You cannot edit your posts in this forum
    You cannot delete your posts in this forum
    You cannot vote in polls in this forum
    You cannot attach files in this forum
    You cannot download files in this forum

    !ATTENTION!
    The site does not give electronic versions of products, and is engaged only in a collecting and cataloguing of the references sent and published at a forum by our readers. If you are the legal owner of any submitted material and do not wish that the reference to it was in our catalogue, contact us and we shall immediately remove her. Files for an exchange on tracker are given by users of a site, and the administration does not bear the responsibility for their maintenance. The request to not fill in the files protected by copyrights, and also files of the illegal maintenance!