Важное объявление!
У Нас Все раздачи мультитрекерные, при нуле пиров в релизах, можете смело вставать на закачку!
 
Автор Сообщение

HUNTER

Стаж:
4 года 4 месяца
Сообщений:
56839

Репутация: 101

[+] [-]
Вне форума [Профиль] [ЛС]

Эдуард Трояновский - Кейта Обара + Андеркарт
Дата эфира: 09.09.2016
Вид спорта: Бокс
Комментарий: Профессиональный
Язык комментариев: Русский-Описание: В пятницу компания "Мир бокса" открывает осеннию серию турниров боксёрским шоу, главным событием которого станет поединок между чемпионом мира в первом полусреднем весе IBF/IBO 36-летним россиянином Эдуардом Трояновским (24-0-0, 21 КО) и официальным претендентом на титул Международной боксёрской федерации (IBF) 29-летним японцем Кейтой Обарой (16-1-1, 15 КО). Россиянин будет проводить третью защиту титула IBO и вторую – чемпионского звания IBF. На сегодняшний день Трояновский является одним из самых успешных действующих российских бойцов. В его активе два чемпионских пояса, больше только у полутяжеловеса Сергея Ковалёва (у Дениса Лебедева тоже два титула WBA (Super) и IBF). Регулярное появление в периметре ринга и победы над крепкими соперниками, к которым смело можно отнести Айка Шахназаряна, и до встрече с Троей небитого аргентинца Сезара Рене Куэнку, сделали из Трояновского бойца с мировым именем, который всё чаще становится хедлайнером боксёрских шоу. Предстоящий поединок станет настоящей проверкой сил для Трои. Соперник - рослый японец Обара с хорошо поставленным ударом. Оба бойца более 90% своих боёв закончили досрочно, поэтому крайне любопытно будет посмотреть, чем закончится пятничное противостояние двух панчеров. В андекарде на ринг выйдут Рахим Чахкиев, Алексей Папин, Сергей Лубкович и другие.-Автор рипа: sanchez2011
Качество: DVB
Формат: TS
Видео кодек: H.264
Аудио кодек: MP2
Видео: MPEG4 Video (H264) 720x576 (16:9) 25fps 2710kbps
Аудио: MPEG Audio 48000Hz stereo 192kbps

Скриншоты

Media Info

GeneralID : 1 (0x1)Complete name : W:\раздачи\Troyanovsky vs. Obara. & Undercard 9.09.2016.tsFormat : MPEG-TSFile size : 1.51 GiBDuration : 1h 10mnOverall bit rate mode : VariableOverall bit rate : 3 055 Kbps
VideoID : 1031 (0x407)Menu ID : 1030 (0x406)Format : AVCFormat/Info : Advanced Video CodecFormat profile : Main@L3Format settings, CABAC : YesFormat settings, ReFrames : 3 framesFormat settings, GOP : M=4, N=28Codec ID : 27Duration : 1h 10mnBit rate : 2 710 KbpsWidth : 720 pixelsHeight : 576 pixelsDisplay aspect ratio : 16:9Frame rate : 25.000 fpsStandard : ComponentColor space : YUVChroma subsampling : 4:2:0Bit depth : 8 bitsScan type : InterlacedScan type, store method : Separated fieldsScan order : Top Field FirstBits/(Pixel*Frame) : 0.261Stream size : 1.34 GiB (89%)Color range : LimitedColor primaries : BT.601 PALTransfer characteristics : BT.470 System B, BT.470 System GMatrix coefficients : BT.601
AudioID : 1032 (0x408)Menu ID : 1030 (0x406)Format : MPEG AudioFormat version : Version 1Format profile : Layer 2Codec ID : 3Duration : 1h 10mnBit rate mode : ConstantBit rate : 192 KbpsChannel(s) : 2 channelsSampling rate : 48.0 KHzCompression mode : LossyDelay relative to video : -120msStream size : 97.0 MiB (6%)Language : English
TextID : 1033 (0x409)-100Menu ID : 1030 (0x406)Format : TeletextLanguage : Russian

Продолжительность

01:10:38

Список боев

Папин - Оливера
Чахкиев - Валори
Трояновский - Обара

_________________
Показать сообщения:    

Текущее время: Сегодня 06:14

Часовой пояс: GMT



Вы не можете начинать темы
Вы не можете отвечать на сообщения
Вы не можете редактировать свои сообщения
Вы не можете удалять свои сообщения
Вы не можете голосовать в опросах
Вы не можете прикреплять файлы к сообщениям
Вы не можете скачивать файлы