Ивановский Торрент трекер
Яндекс.Погода
DL-List and Torrent activity
None
 
     
 
 

[Quote]
ForZe

- Три дня лейтенанта Кравцова-Год выпуска: 2011
Страна: Украина, Россия / Star Media по заказу телеканала «Россия 1»-Жанр: драма, военный
Продолжительность: 4 x 00:44:00-Режиссер: Александр Даруга
Сценарий: Алексей Тимошкин
Продюсер: Виталий Бордачев, Влад Ряшин, Кирилл Бурдихин
Оператор: Иван Гудков-В ролях: Алексей Воробьев, Ксения Суркова, Владимир Гостюхин, Дмитрий Куличков, Николай Иванов, Алексей Гришин, Кирилл Бурдихин, Кирилл Кяро, Дмитрий Гусев, Владимир Ямненко, Дмитрий Лавров, Павел Галич--Описание: Командир взвода лейтенант Кравцов прибывает в действующую армию. Военная судьба, в среднем, отмеряла таким лейтенантам всего три дня жизни. За это время, Кравцов должен стать командиром для своих солдат и повести их в безнадежную атаку, спасая наступающий полк… Сможет ли он выжить в эти три дня? Ведь это так несправедливо - умирать в восемнадцать лет.-Рейтинг
kinopoisk.ru: 9.000 (18)--Семпл |-Качество: DVDRip
Формат: AVI
Видео кодек: DivX
Аудио кодек: MP3
Видео: 720x384 (1.88:1), 25 fps, DivX Codec 5.x or 6.x ~1846 kbps avg, 0.27 bit/pixel
Аудио: 48 kHz, MPEG Layer 3, 2 ch, ~128.00 kbps avg-

Скриншоты

МИ

Общее
Полное имя : D:\Serials rus\Три дня лейтенанта Кравцова\01.avi
Формат : AVI
Формат/Информация : Audio Video Interleave
Размер файла : 632 Мбайт
Продолжительность : 44 м.
Общий поток : 1980 Кбит/сек
Библиотека кодирования : AVI OpenDML FlasKMPEG plugin release
Видео
Идентификатор : 0
Формат : MPEG-4 Visual
Параметр BVOP формата : 1
Параметр QPel формата : Нет
Параметр GMC формата : Без точки перехода
Параметр матрицы формата : Default (H.263)
Режим смешивания : Сжатый битовый поток
Идентификатор кодека : DX50
Идентификатор кодека/Подсказка : DivX 5
Продолжительность : 44 м.
Битрейт : 1846 Кбит/сек
Ширина : 720 пикселей
Высота : 384 пикселя
Соотношение сторон : 1,875
Частота кадров : 25,000 кадров/сек
Цветовое пространство : YUV
Субдискретизация насыщенности : 4:2:0
Битовая глубина : 8 бит
Тип развёртки : Прогрессивная
Метод сжатия : С потерями
Бит/(Пиксели*Кадры) : 0.267
Размер потока : 590 Мбайт (93%)
Библиотека кодирования : DivX 6.8.5 (UTC 2009-08-20)
Аудио
Идентификатор : 1
Формат : MPEG Audio
Версия формата : Version 1
Профиль формата : Layer 3
Режим : Joint stereo
Расширение режима : MS Stereo
Идентификатор кодека : 55
Идентификатор кодека/Подсказка : MP3
Продолжительность : 44 м.
Вид битрейта : Постоянный
Битрейт : 128 Кбит/сек
Каналы : 2 канала
Частота : 48,0 КГц
Метод сжатия : С потерями
Размер потока : 40,9 Мбайт (6%)
Выравнивание : Разделение по промежуткам
Продолжительность промежутка : 200 мс. (5,00 видеокадров)
-


Display posts:    

Current time is: 24-May 09:05

All times are UTC ± 0


You cannot post new topics in this forum
You cannot reply to topics in this forum
You cannot edit your posts in this forum
You cannot delete your posts in this forum
You cannot vote in polls in this forum
You cannot attach files in this forum
You cannot download files in this forum

!ATTENTION!
The site does not give electronic versions of products, and is engaged only in a collecting and cataloguing of the references sent and published at a forum by our readers. If you are the legal owner of any submitted material and do not wish that the reference to it was in our catalogue, contact us and we shall immediately remove her. Files for an exchange on tracker are given by users of a site, and the administration does not bear the responsibility for their maintenance. The request to not fill in the files protected by copyrights, and also files of the illegal maintenance!