Важное объявление!
У Нас Все раздачи мультитрекерные, при нуле пиров в релизах, можете смело вставать на закачку!
 
Автор Сообщение

HUNTER

Стаж:
4 года 4 месяца
Сообщений:
56848

Репутация: 101

[+] [-]
Вне форума [Профиль] [ЛС]

Mega Man - Mega Man
Жанр: Trance/Hardcore/Hard Trance/Happy Hardcore
Страна-производитель диска: Germany
Год издания: 1996
Издатель (лейбл): CNR Music Germany
Номер по каталогу: 8800514
Страна: Germany
Аудиокодек: FLAC (*.flac)
Тип рипа: tracks+.cue
Битрейт аудио: lossless
Продолжительность: 00:19:51
Источник (релизер): Собственный рип
Наличие сканов в содержимом раздачи: нет
Треклист:
01. Mega Man (Radio Version) (3:47)
02. Mega Man (DJ Anthony, Edgar & Georgio Remix) (6:12)
03. Mega Man (DJ Alici Remix) (4:07)
04. Mega Man (DJ Weirdo & Guitar Rob Hardcore Remix) (5:32)

Лог создания рипа

Exact Audio Copy V1.0 beta 3 from 29. August 2011
Отчёт EAC об извлечении, выполненном 9. мая 2012, 18:57
Mega Man / Mega Man
Дисковод: ATAPI DVD A DH20A3H Adapter: 1 ID: 1
Режим чтения : ДостоверностьИспользование точного потока : ДаОтключение кэша аудио : ДаИспользование указателей C2 : Нет
Коррекция смещения при чтении : 6Способность читать области Lead-in и Lead-out : НетЗаполнение пропущенных сэмплов тишиной : ДаУдаление блоков с тишиной в начале и конце : НетПри вычислениях CRC использовались нулевые сэмплы : ДаИнтерфейс : Встроенный Win32-интерфейс для Win NT/2000Обработка зазоров : Добавлено к предыдущему треку
Выходной формат : Пользовательский кодировщикВыбранный битрейт : 1024 kBit/sКачество : ВысокийДобавление ID3-тега : НетУтилита сжатия : C:\Program Files\Exact Audio Copy\Flac\flac.exeДополнительные параметры : -V -8 -T "Genre=%genre%" -T "Artist=%artist%" -T "Title=%title%" -T "Album=%albumtitle%" -T "Date=%year%" -T "Tracknumber=%tracknr%" -T "Comment=%comment%" %source%
TOC извлечённого CD
Трек | Старт | Длительность | Начальный сектор | Конечный сектор --------------------------------------------------------------------- 1 | 0:00.00 | 3:50.37 | 0 | 17286 2 | 3:50.37 | 6:15.13 | 17287 | 45424 3 | 10:05.50 | 4:10.52 | 45425 | 64226 4 | 14:16.27 | 5:34.65 | 64227 | 89341
Трек 1
Имя файла C:\Documents and Settings\LP_Masta\Мои документы\Раздачи для торрентс.ру\Mega Man\Singles\1996 Mega Man\01 - Mega Man (Radio Version).wav
Длина предзазора 0:00:02.00
Пиковый уровень 98.0 % Скорость извлечения 4.2 X Качество трека 100.0 % CRC теста 483EF65D CRC копии 483EF65D Точное извлечение (достоверность 2) [2662E304] (AR v1) Копирование... OK
Трек 2
Имя файла C:\Documents and Settings\LP_Masta\Мои документы\Раздачи для торрентс.ру\Mega Man\Singles\1996 Mega Man\02 - Mega Man (DJ Anthony, Edgar & Georgio Remix).wav
Длина предзазора 0:00:02.25
Пиковый уровень 98.0 % Скорость извлечения 4.7 X Качество трека 99.9 % CRC теста B08415BE CRC копии B08415BE Трек не обнаружен в базе AccurateRip Копирование... OK
Трек 3
Имя файла C:\Documents and Settings\LP_Masta\Мои документы\Раздачи для торрентс.ру\Mega Man\Singles\1996 Mega Man\03 - Mega Man (DJ Alici Remix)).wav
Длина предзазора 0:00:02.35
Пиковый уровень 98.0 % Скорость извлечения 5.3 X Качество трека 100.0 % CRC теста 50D5F3BD CRC копии 50D5F3BD Трек не обнаружен в базе AccurateRip Копирование... OK
Трек 4
Имя файла C:\Documents and Settings\LP_Masta\Мои документы\Раздачи для торрентс.ру\Mega Man\Singles\1996 Mega Man\04 - Mega Man (DJ Weirdo & Guitar Rob Hardcore Remix).wav
Длина предзазора 0:00:02.27
Пиковый уровень 62.6 % Скорость извлечения 6.0 X Качество трека 100.0 % CRC теста 5E666CFA CRC копии 5E666CFA Трек не обнаружен в базе AccurateRip Копирование... OK
1 трек(и) скопированы точно 3 трек(и) не содержатся в базе AccurateRip
Некоторые треки не прошли проверку на точность
Ошибок не произошло
Конец отчёта
---- CUETools DB Plugin V2.1.3
[CTDB TOCID: MWJGI_ye3gTv3CmFrPbB7j8uolc-] disk not present in database, Submit result: MWJGI_ye3gTv3CmFrPbB7j8uolc- has been uploaded
==== Контрольная сумма отчёта 7F6B214B816998F76267CDA7BDBDEF707AD26AB0358FE156A33A3A3DC0C42619 ====

Содержание индексной карты (.CUE)

REM GENRE HardcoreREM DATE 1996REM DISCID 2B04A704REM COMMENT "ExactAudioCopy v1.0b3"PERFORMER "Mega Man"TITLE "Mega Man"FILE "01 - Mega Man (Radio Version).wav" WAVE TRACK 01 AUDIO TITLE "Mega Man (Radio Version)" PERFORMER "Mega Man" INDEX 01 00:00:00 TRACK 02 AUDIO TITLE "Mega Man (DJ Anthony, Edgar & Georgio Remix)" PERFORMER "Mega Man" INDEX 00 03:48:12FILE "02 - Mega Man (DJ Anthony, Edgar & Georgio Remix).wav" WAVE INDEX 01 00:00:00 TRACK 03 AUDIO TITLE "Mega Man (DJ Alici Remix))" PERFORMER "Mega Man" INDEX 00 06:12:53FILE "03 - Mega Man (DJ Alici Remix)).wav" WAVE INDEX 01 00:00:00 TRACK 04 AUDIO TITLE "Mega Man (DJ Weirdo & Guitar Rob Hardcore Remix)" PERFORMER "Mega Man" INDEX 00 04:08:25FILE "04 - Mega Man (DJ Weirdo & Guitar Rob Hardcore Remix).wav" WAVE INDEX 01 00:00:00

_________________
Показать сообщения:    

Текущее время: Сегодня 00:44

Часовой пояс: GMT



Вы не можете начинать темы
Вы не можете отвечать на сообщения
Вы не можете редактировать свои сообщения
Вы не можете удалять свои сообщения
Вы не можете голосовать в опросах
Вы не можете прикреплять файлы к сообщениям
Вы не можете скачивать файлы
Наши партнеры: интернет магазин Ивановского трикотажа textilla.ru