Важное объявление!
У Нас Все раздачи мультитрекерные, при нуле пиров в релизах, можете смело вставать на закачку!
 
Автор Сообщение

HUNTER

Стаж:
4 года 11 месяцев
Сообщений:
66027

Репутация: 101

[+] [-]
Вне форума [Профиль] [ЛС]

Re-O-Do Feat. CCR / Three Four Give Me More - DaDaDa
Жанр: Trance, Happy Hardcore
Год издания: 1995
Издатель (лейбл): MCA Records
Номер по каталогу: MCD 32899
Аудиокодек: FLAC (*.flac)
Тип рипа: tracks+.cue
Битрейт аудио: lossless
Продолжительность: 18:09
Источник (релизер): what.cd
Наличие сканов в содержимом раздачи: да
Треклист:
01. Re-O-Do feat. CCR - Three Four Give Me More - DaDaDa (Radio Edit 1) [03:46]
02. Re-O-Do feat. CCR - Three Four Give Me More - DaDaDa (Radio Edit 2) [03:32]
03. Re-O-Do feat. CCR - Three Four Give Me More - DaDaDa (Long Version 1) [05:35]
04. Re-O-Do feat. CCR - Three Four Give Me More - DaDaDa (Long Version 2) [05:14]

Лог создания рипа

Exact Audio Copy V1.0 beta 3 from 29. August 2011
EAC extraction logfile from 11. December 2011, 10:38
Re-O-Do feat. CCR / Three Four Give Me More - DaDaDa
Used drive : ASUS DRW-1814BLT Adapter: 0 ID: 3
Read mode : SecureUtilize accurate stream : YesDefeat audio cache : YesMake use of C2 pointers : No
Read offset correction : 6Overread into Lead-In and Lead-Out : NoFill up missing offset samples with silence : YesDelete leading and trailing silent blocks : NoNull samples used in CRC calculations : YesUsed interface : Native Win32 interface for Win NT & 2000Gap handling : Appended to previous track
Used output format : User Defined EncoderSelected bitrate : 1024 kBit/sQuality : HighAdd ID3 tag : NoCommand line compressor : C:\Program Files (x86)\Exact Audio Copy\Flac\flac.exeAdditional command line options : -6 -V -T "ARTIST=%artist%" -T "TITLE=%title%" -T "ALBUM=%albumtitle%" -T "DATE=%year%" -T "TRACKNUMBER=%tracknr%" -T "GENRE=%genre%" -T "COMMENT=%comment%" %hascover%--picture="%coverfile%"%hascover% %source% -o %dest%
TOC of the extracted CD
Track | Start | Length | Start sector | End sector --------------------------------------------------------- 1 | 0:00.00 | 3:46.45 | 0 | 16994 2 | 3:46.45 | 3:32.07 | 16995 | 32901 3 | 7:18.52 | 5:35.65 | 32902 | 58091 4 | 12:54.42 | 5:14.73 | 58092 | 81714
Track 1
Filename G:\Torrent\_new\Re-O-Do feat. CCR - Three Four Give Me More - DaDaDa (1995) - FLAC\01. Re-O-Do feat. CCR - Three Four Give Me More - DaDaDa (Radio Edit 1).wav
Pre-gap length 0:00:02.00
Peak level 96.3 % Extraction speed 5.0 X Track quality 100.0 % Test CRC AE01FA53 Copy CRC AE01FA53 Track not present in AccurateRip database Copy OK
Track 2
Filename G:\Torrent\_new\Re-O-Do feat. CCR - Three Four Give Me More - DaDaDa (1995) - FLAC\02. Re-O-Do feat. CCR - Three Four Give Me More - DaDaDa (Radio Edit 2).wav
Pre-gap length 0:00:02.18
Peak level 99.9 % Extraction speed 5.4 X Track quality 100.0 % Test CRC 2A7F628D Copy CRC 2A7F628D Track not present in AccurateRip database Copy OK
Track 3
Filename G:\Torrent\_new\Re-O-Do feat. CCR - Three Four Give Me More - DaDaDa (1995) - FLAC\03. Re-O-Do feat. CCR - Three Four Give Me More - DaDaDa (Long Version 1).wav
Pre-gap length 0:00:02.17
Peak level 99.0 % Extraction speed 6.3 X Track quality 100.0 % Test CRC 52994038 Copy CRC 52994038 Track not present in AccurateRip database Copy OK
Track 4
Filename G:\Torrent\_new\Re-O-Do feat. CCR - Three Four Give Me More - DaDaDa (1995) - FLAC\04. Re-O-Do feat. CCR - Three Four Give Me More - DaDaDa (Long Version 2).wav
Pre-gap length 0:00:02.17
Peak level 98.3 % Extraction speed 6.8 X Track quality 100.0 % Test CRC A81FF0ED Copy CRC A81FF0ED Track not present in AccurateRip database Copy OK
None of the tracks are present in the AccurateRip database
No errors occurred
End of status report
==== Log checksum BAA79009B373F424E4283C08D3C4A07555AB6F64556D8FB2C3583C9FB751FA7C ====

Содержание индексной карты (.CUE)

REM GENRE RaveREM DATE 1995REM DISCID 2A044104REM COMMENT "ExactAudioCopy v1.0b3"CATALOG 0000000000000PERFORMER "Re-O-Do feat. CCR"TITLE "Three Four Give Me More - DaDaDa"FILE "01. Re-O-Do feat. CCR - Three Four Give Me More - DaDaDa (Radio Edit 1).wav" WAVE TRACK 01 AUDIO TITLE "Three Four Give Me More - DaDaDa (Radio Edit 1)" PERFORMER "Re-O-Do feat. CCR" INDEX 01 00:00:00 TRACK 02 AUDIO TITLE "Three Four Give Me More - DaDaDa (Radio Edit 2)" PERFORMER "Re-O-Do feat. CCR" INDEX 00 03:44:27FILE "02. Re-O-Do feat. CCR - Three Four Give Me More - DaDaDa (Radio Edit 2).wav" WAVE INDEX 01 00:00:00 TRACK 03 AUDIO TITLE "Three Four Give Me More - DaDaDa (Long Version 1)" PERFORMER "Re-O-Do feat. CCR" INDEX 00 03:29:65FILE "03. Re-O-Do feat. CCR - Three Four Give Me More - DaDaDa (Long Version 1).wav" WAVE INDEX 01 00:00:00 TRACK 04 AUDIO TITLE "Three Four Give Me More - DaDaDa (Long Version 2)" PERFORMER "Re-O-Do feat. CCR" INDEX 00 05:33:48FILE "04. Re-O-Do feat. CCR - Three Four Give Me More - DaDaDa (Long Version 2).wav" WAVE INDEX 01 00:00:00


_________________
Показать сообщения:    

Текущее время: Сегодня 22:26

Часовой пояс: GMT



Вы не можете начинать темы
Вы не можете отвечать на сообщения
Вы не можете редактировать свои сообщения
Вы не можете удалять свои сообщения
Вы не можете голосовать в опросах
Вы не можете прикреплять файлы к сообщениям
Вы не можете скачивать файлы