Важное объявление!
У Нас Все раздачи мультитрекерные, при нуле пиров в релизах, можете смело вставать на закачку!
 
Автор Сообщение

HUNTER

Стаж:
4 года 6 месяцев
Сообщений:
60910

Репутация: 101

[+] [-]
Вне форума [Профиль] [ЛС]

Топ Гир / Top Gear
Год выпуска: 2013
Страна: Великобритания
Жанр: Автопередача, Ток-шоу
Продолжительность: 2 x ~ 01:02:00
Перевод: Отсутствует
Субтитры: русские (notabenoid), английские (addic7ed)
В ролях: Ричард Хаммонд, Джереми Кларксон, Джеймс Мэй и Стиг.
Описание: Top Gear — популярная английская телепередача, посвящённая автомобилям. Первые выпуски передачи появились в 1977 году. Эта передача была просто пересказ журнала, в течение долгого времени формат передачи не менялся. Но в 2002 году, произошел перезапуск цикла, и вместо сухого пересказа, появился современный «Top Gear», с юмором, приколами, и фирменными тестами. Передачу стали вести Джереми Кларксон, Ричард Хаммонд, Джеймс Мэй и супер секретный водитель-испытатель Стиг. Аудитория программ в странах официальной трансляции составляет около 350 миллионов человек.
-

Другие раздачи / Sample
-
Качество: HDTVRip
Формат: MKV
Видео кодек: H.264
Аудио кодек: АС3
Видео: 1152x648 (1.78:1), 25.000 fps, x264 High@L4.1, ~2900 kbps avg, 0.15 bit/pixel
Аудио: 48 kHz, AC3, 2/0 (L,R) ch, ~192.00 kbps avg | Original
-

x264_log

avs [info]: 1152x648p 0:0 @ 25/1 fps (cfr)
x264 [info]: using cpu capabilities: MMX2 SSE2Fast SSSE3 FastShuffle SSE4.2 AVX
x264 [info]: profile High, level 4.1
x264 [info]: frame I:1183 Avg QP:18.27 size: 86122
x264 [info]: frame P:25485 Avg QP:20.74 size: 25133
x264 [info]: frame B:66644 Avg QP:22.70 size: 8901
x264 [info]: consecutive B-frames: 4.1% 4.5% 7.1% 68.3% 6.9% 6.7% 0.8% 0.9% 0.1% 0.2% 0.0% 0.1% 0.1% 0.0% 0.0% 0.1% 0.1%
x264 [info]: mb I I16..4: 9.1% 69.2% 21.7%
x264 [info]: mb P I16..4: 3.1% 11.8% 2.0% P16..4: 41.3% 17.2% 12.9% 0.4% 0.1% skip:11.2%
x264 [info]: mb B I16..4: 0.2% 1.5% 0.3% B16..8: 33.0% 9.2% 2.6% direct: 5.2% skip:48.1% L0:35.4% L1:48.5% BI:16.1%
x264 [info]: 8x8 transform intra:70.9% inter:61.8%
x264 [info]: direct mvs spatial:100.0% temporal:0.0%
x264 [info]: Weighted P-Frames: Y:3.0% UV:1.6%
x264 [info]: ref P L0: 56.5% 11.1% 17.2% 4.5% 3.4% 2.1% 1.9% 0.9% 0.9% 0.7% 0.8% 0.1% 0.0%
x264 [info]: ref B L0: 83.4% 9.1% 3.0% 1.5% 0.9% 0.7% 0.5% 0.4% 0.2% 0.1%
x264 [info]: ref B L1: 95.5% 4.5%
x264 [info]: kb/s:2862.61
encoded 93312 frames, 2.65 fps, 2862.61 kb/s, duration 9:47:41.07

MI

Общее
Уникальный идентификатор : 238805690807922701077828260884700320338 (0xB3A84D96C33E6E2581E316468D1DD252)
Полное имя : E:\Top.Gear.S19.HDTVRip-AVC\Top.Gear.S19E01.HDTVRip.AVC.AC3.JoWooD.mkv
Формат : Matroska
Версия формата : Version 4 / Version 2
Размер файла : 1,33 Гбайт
Продолжительность : 1 ч. 2 м.
Общий поток : 3056 Кбит/сек
Дата кодирования : UTC 2010-02-22 21:41:31
Программа кодирования : mkvmerge v5.9.0 ('On The Loose') built on Dec 9 2012 15:37:01
Библиотека кодирования : libebml v1.3.0 + libmatroska v1.4.0
Видео
Идентификатор : 1
Формат : AVC
Формат/Информация : Advanced Video Codec
Профиль формата : High@L4.1
Параметр CABAC формата : Да
Параметр ReFrames формата : 11 кадров
Идентификатор кодека : V_MPEG4/ISO/AVC
Продолжительность : 1 ч. 2 м.
Битрейт : 2804 Кбит/сек
Ширина : 1152 пикселя
Высота : 648 пикселей
Соотношение сторон : 16:9
Режим частоты кадров : Постоянный
Частота кадров : 25,000 кадров/сек
Цветовое пространство : YUV
Субдискретизация насыщенности : 4:2:0
Битовая глубина : 8 бит
Тип развёртки : Прогрессивная
Бит/(Пиксели*Кадры) : 0.150
Размер потока : 1,22 Гбайт (92%)
Заголовок : Top Gear: 19x01
Библиотека кодирования : x264 core 129 r2230kMod 1cffe9f
Настройки программы : cabac=1 / ref=11 / deblock=1:-1:-1 / analyse=0x3:0x133 / me=umh / subme=10 / psy=1 / fade_compensate=0.00 / psy_rd=1.10:0.10 / mixed_ref=1 / me_range=48 / chroma_me=1 / trellis=2 / 8x8dct=1 / cqm=0 / deadzone=21,11 / fast_pskip=0 / chroma_qp_offset=-3 / threads=12 / lookahead_threads=2 / sliced_threads=0 / nr=0 / decimate=0 / interlaced=0 / bluray_compat=0 / constrained_intra=0 / bframes=16 / b_pyramid=2 / b_adapt=2 / b_bias=0 / direct=3 / weightb=1 / open_gop=0 / weightp=2 / keyint=250 / keyint_min=25 / scenecut=40 / intra_refresh=0 / rc_lookahead=40 / rc=crf / mbtree=0 / crf=20.7500 / qcomp=0.70 / qpmin=0 / qpmax=69 / qpstep=4 / vbv_maxrate=50000 / vbv_bufsize=62500 / crf_max=0.0 / nal_hrd=none / ip_ratio=1.40 / pb_ratio=1.20 / aq=3:1.00
Язык : English
Default : Да
Forced : Нет
Аудио
Идентификатор : 2
Формат : AC-3
Формат/Информация : Audio Coding 3
Расширение режима : CM (complete main)
Параметр Endianness формата : Big
Идентификатор кодека : A_AC3
Продолжительность : 1 ч. 2 м.
Вид битрейта : Постоянный
Битрейт : 192 Кбит/сек
Каналы : 2 канала
Расположение каналов : Front: L R
Частота : 48,0 КГц
Битовая глубина : 16 бит
Метод сжатия : С потерями
Размер потока : 85,4 Мбайт (6%)
Заголовок : Original
Язык : English
Default : Да
Forced : Нет

Скриншоты


_________________
Показать сообщения:    

Текущее время: Сегодня 13:13

Часовой пояс: GMT



Вы не можете начинать темы
Вы не можете отвечать на сообщения
Вы не можете редактировать свои сообщения
Вы не можете удалять свои сообщения
Вы не можете голосовать в опросах
Вы не можете прикреплять файлы к сообщениям
Вы не можете скачивать файлы
Наши партнеры: интернет магазин Ивановского трикотажа textilla.ru