Ивановский Торрент трекер
Яндекс.Погода
 

[Цитировать]
HUNTER

Top Gear Америка 2 сезон / Top Gear America (USA) season 2
Страна: США
Режиссер: Бен Силверман
Жанр: Автопередача
Дата выпуска: 2012
Продолжительность: 00:43:57
Перевод: Многоголосый закадровый - Jetvis Studio
Русские субтитры: нет
Релиз:
Перевод: Fahrenheit, Corsair, doc_ravik.
Озвучка: Студия "Jetvis"
Роли озвучивали: Иван "Jet" Назаров (Таннер Фауст), Карен "MrAdams" Адамян (Адам Феррара), Михаил "Mike" Шалатонов (Рутледж Вуд).
Описание: Знаменитое авто-шоу Top Gear, теперь и в Америке. «Top Gear» — популярное авто-шоу, посвящённая автомобилям. «Top Gear America» — создан как спин-офф английской версии. Передача выходит на телеканале NBC, как замена автомобильной передачи «Рыцарь дорог», у которой упал рейтинг и стало не выгодно производство передачи.
Качество видео: HDTVRip
Формат видео: AVI
Видео: XviD, 624x352 (16:9), 29.970 fps, ~1000 kbps
Аудио: Audio Coding 3 (AC3) at 192 Кбит/сек, 2 канала(ов), 48,0 КГц (RUS)
Top Gear Америка - Сезон: 2 (HDTVRip 360p - Jetvis Studio)

Описание серии


2x12: "Континентальная переправа."
Дата показа: 6 марта 2012, History Channel
Ведущие преодолевают континентальный водораздел на специально подготовленных минивэнах. Рутледж на Chevrolet Astro, Адам на Chrysler Town & Country, а Таннер на Ford Aerostar.

MediaInfo

Формат : AVI
Формат/Информация : Audio Video Interleave
Размер файла : 378 Мбайт
Продолжительность : 43 м.
Общий поток : 1201 Кбит/сек
Программа кодирования : TMPGEnc Video Mastering Works 5 Version. 5.0.6.38
Библиотека кодирования : TMPGEnc Video Mastering Works 5 Version. 5.0.6.38
Видео
Идентификатор : 0
Формат : MPEG-4 Visual
Профиль формата : Advanced Simple@L5
Параметр BVOP формата : 2
Параметр QPel формата : Нет
Параметр GMC формата : Без точки перехода
Параметр матрицы формата : Default (H.263)
Режим смешивания : Сжатый битовый поток
Идентификатор кодека : XVID
Идентификатор кодека/Подсказка : XviD
Продолжительность : 43 м.
Битрейт : 1000 Кбит/сек
Ширина : 624 пикселя
Высота : 352 пикселя
Соотношение сторон : 16:9
Частота кадров : 29,970 кадров/сек
Цветовое пространство : YUV
Субдискретизация насыщенности : 4:2:0
Битовая глубина : 8 бит
Тип развёртки : Прогрессивная
Метод сжатия : С потерями
Бит/(Пиксели*Кадры) : 0.152
Размер потока : 314 Мбайт (83%)
Библиотека кодирования : XviD 64
Аудио
Идентификатор : 1
Формат : AC-3
Формат/Информация : Audio Coding 3
Расширение режима : CM (complete main)
Идентификатор кодека : 2000
Продолжительность : 43 м.
Вид битрейта : Постоянный
Битрейт : 192 Кбит/сек
Каналы : 2 канала
Расположение каналов : Front: L R
Частота : 48,0 КГц
Битовая глубина : 16 бит
Метод сжатия : С потерями
Размер потока : 60,4 Мбайт (16%)
Выравнивание : Соединение по промежуткам
Продолжительность промежутка : 240 мс. (7,19 видеокадров)
Время предзагрузки промежутка : 480 мс.

Скриншоты

0 человек читают эту тему: 0 пользователей, 0 скрытых пользователей, 0 гостей

Показать сообщения:    

Текущее время: 23-Авг 23:55

Часовой пояс: UTC - 1


Вы не можете начинать темы
Вы не можете отвечать на сообщения
Вы не можете редактировать свои сообщения
Вы не можете удалять свои сообщения
Вы не можете голосовать в опросах
Вы не можете прикреплять файлы к сообщениям
Вы не можете скачивать файлы

!ВНИМАНИЕ!
Сайт не предоставляет электронные версии произведений, а занимается лишь коллекционированием и каталогизацией ссылок, присылаемых и публикуемых на форуме нашими читателями. Если вы являетесь правообладателем какого-либо представленного материала и не желаете, чтобы ссылка на него находилась в нашем каталоге, свяжитесь с нами, и мы незамедлительно удалим ее. Файлы для обмена на трекере предоставлены пользователями сайта, и администрация не несет ответственности за их содержание. Просьба не заливать файлы, защищенные авторскими правами, а также файлы нелегального содержания!