Ивановский Торрент трекер
Яндекс.Погода
 

[Цитировать]
HUNTER

Топ Гир - Превосходное Путешествие / Top Gear - The Perfect Road Trip- Страна: Великобритания
Жанр: Автопередача
Дата выпуска: 2013
Продолжительность: 01:24:52
Перевод: Профессиональный (двухголосый закадровый) - Jetvis Studio & RG.paravozik-Описание: Cпециальный выпуск "Top Gear" -под названием "Идеальное путешествие". В этом специальном выпуске участвуют только двое ведущих, это Джерeми Кларксон и Ричард Хаммонд.
Джереми и Ричард Хаммонд расскажут нам что по их мнению "идеальное путешествие". Их цель в этом выпуске - это выбор лучшего вида транспорта для разных путешествий по Европе. Цель непростая - ведь выбор так велик. Ричард и Джереми прокатятся на 20 разных автомобилях, начиная от простых и удобных, заканчивая сложными и самыми дорогими в мире, таких как Bugatti, Lamborghini и многие другие.-Качество видео: BDRip
Формат видео: MKV
Видео: H.264 1920x1080 (16:9), 25.00fps, 11.4Mbps
Аудио RUS: Dolby Digital AC3, 48000Hz, 5 channels, 384 kbps
Аудио ENG: DTS, 48000Hz, 6 channels, 1510kbps-СЭМПЛ SAMPLE-

Скриншоты

MediaInfo

D:\Movies\HD-DVD\Top.Gear.The.Perfect.Road.Trip.2013.BDRip.1080p.mkv
General
Unique ID : 195037099981168204649148747969868278507 (0x92BAC773E29CD162BCEC552DC5132AEB)
Complete name : D:\Movies\HD-DVD\Top.Gear.The.Perfect.Road.Trip.2013.BDRip.1080p.mkv
Format : Matroska
Format version : Version 4 / Version 2
File size : 7.88 GiB
Duration : 1h 24mn
Overall bit rate : 13.3 Mbps
Encoded date : UTC 2013-12-11 18:23:22
Writing application : mkvmerge v6.5.0 ('Isn't she lovely') built on Oct 20 2013 12:50:05
Writing library : libebml v1.3.0 + libmatroska v1.4.1
Video #1
ID : 1
Format : AVC
Format/Info : Advanced Video Codec
Format profile : High@L4.1
Format settings, CABAC : Yes
Format settings, ReFrames : 4 frames
Codec ID : V_MPEG4/ISO/AVC
Duration : 1h 24mn
Bit rate : 11.4 Mbps
Width : 1 920 pixels
Height : 1 080 pixels
Display aspect ratio : 16:9
Frame rate mode : Constant
Frame rate : 25.000 fps
Color space : YUV
Chroma subsampling : 4:2:0
Bit depth : 8 bits
Scan type : Progressive
Bits/(Pixel*Frame) : 0.220
Stream size : 6.60 GiB (84%)
Writing library : x264 core 140 r2377 1ca7bb9
Encoding settings : cabac=1 / ref=4 / deblock=1:0:0 / analyse=0x3:0x133 / me=umh / subme=7 / psy=1 / psy_rd=1.00:0.00 / mixed_ref=1 / me_range=16 / chroma_me=1 / trellis=1 / 8x8dct=1 / cqm=0 / deadzone=21,11 / fast_pskip=0 / chroma_qp_offset=-2 / threads=18 / lookahead_threads=3 / sliced_threads=0 / nr=0 / decimate=1 / interlaced=0 / bluray_compat=0 / constrained_intra=0 / bframes=3 / b_pyramid=2 / b_adapt=2 / b_bias=0 / direct=3 / weightb=1 / open_gop=0 / weightp=2 / keyint=250 / keyint_min=25 / scenecut=40 / intra_refresh=0 / rc_lookahead=50 / rc=2pass / mbtree=1 / bitrate=11402 / ratetol=1.0 / qcomp=0.60 / qpmin=0 / qpmax=69 / qpstep=4 / cplxblur=20.0 / qblur=0.5 / ip_ratio=1.40 / aq=1:1.00
Default : Yes
Forced : No
Audio #2
ID : 2
Format : AC-3
Format/Info : Audio Coding 3
Mode extension : CM (complete main)
Format settings, Endianness : Big
Codec ID : A_AC3
Duration : 1h 24mn
Bit rate mode : Constant
Bit rate : 384 Kbps
Channel(s) : 5 channels
Channel positions : Front: L C R, Side: L R
Sampling rate : 48.0 KHz
Bit depth : 16 bits
Compression mode : Lossy
Stream size : 233 MiB (3%)
Title : MVO Jetvis and Paravozik
Language : Russian
Default : No
Forced : No
Audio #3
ID : 3
Format : DTS
Format/Info : Digital Theater Systems
Mode : 16
Format settings, Endianness : Big
Codec ID : A_DTS
Duration : 1h 24mn
Bit rate mode : Constant
Bit rate : 1 509 Kbps
Channel(s) : 6 channels
Channel positions : Front: L C R, Side: L R, LFE
Sampling rate : 48.0 KHz
Bit depth : 24 bits
Compression mode : Lossy
Stream size : 916 MiB (11%)
Language : English
Default : Yes
Forced : No


Показать сообщения:    

Текущее время: 22-Июл 20:26

Часовой пояс: UTC ± 0


Вы не можете начинать темы
Вы не можете отвечать на сообщения
Вы не можете редактировать свои сообщения
Вы не можете удалять свои сообщения
Вы не можете голосовать в опросах
Вы не можете прикреплять файлы к сообщениям
Вы не можете скачивать файлы

!ВНИМАНИЕ!
Сайт не предоставляет электронные версии произведений, а занимается лишь коллекционированием и каталогизацией ссылок, присылаемых и публикуемых на форуме нашими читателями. Если вы являетесь правообладателем какого-либо представленного материала и не желаете, чтобы ссылка на него находилась в нашем каталоге, свяжитесь с нами, и мы незамедлительно удалим ее. Файлы для обмена на трекере предоставлены пользователями сайта, и администрация не несет ответственности за их содержание. Просьба не заливать файлы, защищенные авторскими правами, а также файлы нелегального содержания!