Ивановский Торрент трекер
Яндекс.Погода
DL-List and Torrent activity
Size:  6.23 GB   |    Registered:  3 months 27 days   |    Completed:  0 times
DL-List: None

Seeder not seen: 3 months 27 days

 
     
 
 
 

[Quote]
HUNTER

Толкин / Tolkien
«A Life of Love, Courage, and Fellowship»
Страна: США
Жанр: Драма, военный, биография
Год выпуска: 2019
Продолжительность: 01:51:42-Перевод 1: Профессиональный (многоголосый закадровый) | iTunes
Перевод 2: Любительский (многоголосый закадровый) HDRezka Studio
Cубтитры: Русские (forced, full), Украинские (forced, full), Английские (full, SDH, Commentary)
Оригинальная аудиодорожка: Английский-Режиссёр: Доме Карукоски / Dome Karukoski
В ролях: Николас Холт, Al Bollands, Kallum Tolkien, Крэйг Робертс, Гарри Джилби, Колм Мини, Лаура Доннелли, Гильермо Бедуорд, Ниа Гвин, Пэм Феррис
Описание: Картина рассказывает о том, как молодой писатель, будучи изгоем во время обучения, находит дружбу, любовь и вдохновение. Фильм затронет участие Толкина в Первой мировой войне — он служил в британских войсках с 1916-го по 1920-й.- -Тип релиза: BDRip 720p
Контейнер: MKV-Видео: MPEG-4 AVC Video, 1280x536, 6500 kbps, 23,976 fps
Аудио 1: Русский | AC-3, 6 ch, 384 Kbps, 48.0 KHz MVO, iTunes
Аудио 2: Русский | AC-3, 2.0 ch, 192 Kbps, 48.0 KHz MVO, HDRezka Studio
Аудио 3: Украинский | AC-3, 2.0 ch, 192 Kbps, 48.0 KHz DUB, iTunes
Аудио 4: Английский | AC-3, 6 ch, 640 Kbps, 48.0 KHz
Аудио 5: Английский | AAC, 2.0 ch, 68.6 Kbps, 48.0 KHz (Audio Commentary with Director Dome Karukoski)
-

MediaInfo

Код:General
Unique ID : 222795120289693553706332161134136634616 (0xA79CC784542E32C9EF07006EEECFACF8)
Complete name : /Volumes/Promise 2/Tolkien.BDRip.720p.pk.mkv
Format : Matroska
Format version : Version 4
File size : 6.23 GiB
Duration : 1h 51mn
Overall bit rate : 7 963 Kbps
Movie name : Tolkien BDRip 720p pk
Encoded date : UTC 2019-08-10 12:24:09
Writing application : mkvmerge v35.0.0 ('All The Love In The World') 64-bit
Writing library : libebml v1.3.9 + libmatroska v1.5.2
Cover : Yes
Attachments : cover.jpg
Video
ID : 1
Format : AVC
Format/Info : Advanced Video Codec
Format profile : High@L4.1
Format settings : CABAC / 12 Ref Frames
Format settings, CABAC : Yes
Format settings, ReFrames : 12 frames
Codec ID : V_MPEG4/ISO/AVC
Duration : 1h 51mn
Bit rate : 6 500 Kbps
Width : 1 280 pixels
Height : 536 pixels
Display aspect ratio : 2.40:1
Frame rate mode : Constant
Frame rate : 23.976 (24000/1001) fps
Color space : YUV
Chroma subsampling : 4:2:0
Bit depth : 8 bits
Scan type : Progressive
Bits/(Pixel*Frame) : 0.395
Stream size : 5.07 GiB (81%)
Writing library : x264 core 158 r2984+49 6932f4a t_mod_New [0-bit@all X86_64]
Encoding settings : cabac=1 / ref=12 / deblock=1:-3:-3 / analyse=0x3:0x133 / me=umh / subme=11 / psy=1 / fade_compensate=0.00 / psy_rd=1.02:0.00 / mixed_ref=1 / me_range=32 / chroma_me=1 / trellis=2 / 8x8dct=1 / cqm=0 / deadzone=21,11 / fast_pskip=0 / chroma_qp_offset=-2 / threads=6 / lookahead_threads=1 / sliced_threads=0 / nr=0 / decimate=1 / interlaced=0 / bluray_compat=0 / constrained_intra=0 / fgo=0 / bframes=10 / b_pyramid=2 / b_adapt=2 / b_bias=0 / direct=3 / weightb=1 / open_gop=0 / weightp=2 / keyint=250 / keyint_min=23 / scenecut=40 / intra_refresh=0 / rc=2pass / mbtree=0 / bitrate=6500 / ratetol=1.0 / qcomp=0.65 / qpmin=0:0:0 / qpmax=69:69:69 / qpstep=4 / cplxblur=20.0 / qblur=0.5 / ip_ratio=1.30 / pb_ratio=1.20 / aq=3:0.75 / aq-sensitivity=10.00 / aq-factor=1.00:1.00:1.00 / aq2=0 / aq3=0 / zones=47,1146,b=1.6/1276,1351,b=1.6/1469,1560,b=1.6/1745,1850,b=1.6/1858,4114,b=1.6/12286,13556,b=1.6/16248,17016,b=1.6/23431,23848,b=1.6/54360,55875,b=1.6/93500,95085,b=1.6/95415,98037,b=1.6/125056,129990,b=1.6/137530,139841,crf=1.3/151258,151423,b=1.6
Language : English
Default : Yes
Forced : No
Color range : Limited
Matrix coefficients : BT.709
Audio #1
ID : 2
Format : AC-3
Format/Info : Audio Coding 3
Commercial name : Dolby Digital
Codec ID : A_AC3
Duration : 1h 51mn
Bit rate mode : Constant
Bit rate : 384 Kbps
Channel(s) : 6 channels
Channel layout : L R C LFE Ls Rs
Sampling rate : 48.0 KHz
Frame rate : 31.250 fps (1536 SPF)
Bit depth : 16 bits
Compression mode : Lossy
Stream size : 307 MiB (5%)
Title : MVO, iTunes
Language : Russian
Service kind : Complete Main
Default : Yes
Forced : No
Audio #2
ID : 3
Format : AC-3
Format/Info : Audio Coding 3
Commercial name : Dolby Digital
Codec ID : A_AC3
Duration : 1h 51mn
Bit rate mode : Constant
Bit rate : 192 Kbps
Channel(s) : 2 channels
Channel layout : L R
Sampling rate : 48.0 KHz
Frame rate : 31.250 fps (1536 SPF)
Bit depth : 16 bits
Compression mode : Lossy
Stream size : 154 MiB (2%)
Title : MVO [HDRezka Studio]
Language : Russian
Service kind : Complete Main
Default : No
Forced : No
Audio #3
ID : 4
Format : AC-3
Format/Info : Audio Coding 3
Commercial name : Dolby Digital
Codec ID : A_AC3
Duration : 1h 51mn
Bit rate mode : Constant
Bit rate : 192 Kbps
Channel(s) : 2 channels
Channel layout : L R
Sampling rate : 48.0 KHz
Frame rate : 31.250 fps (1536 SPF)
Bit depth : 16 bits
Compression mode : Lossy
Stream size : 153 MiB (2%)
Title : Dub, iTunes
Language : Ukrainian
Service kind : Complete Main
Default : No
Forced : No
Audio #4
ID : 5
Format : AC-3
Format/Info : Audio Coding 3
Commercial name : Dolby Digital
Codec ID : A_AC3
Duration : 1h 51mn
Bit rate mode : Constant
Bit rate : 640 Kbps
Channel(s) : 6 channels
Channel layout : L R C LFE Ls Rs
Sampling rate : 48.0 KHz
Frame rate : 31.250 fps (1536 SPF)
Bit depth : 16 bits
Compression mode : Lossy
Stream size : 511 MiB (8%)
Title : Original English
Language : English
Service kind : Complete Main
Default : No
Forced : No
Audio #5
ID : 6
Format : AAC LC
Format/Info : Advanced Audio Codec Low Complexity
Codec ID : A_AAC-2
Duration : 1h 51mn
Bit rate : 68.6 Kbps
Channel(s) : 2 channels
Channel layout : L R
Sampling rate : 48.0 KHz
Frame rate : 46.875 fps (1024 SPF)
Compression mode : Lossy
Delay relative to video : 9ms
Stream size : 54.8 MiB (1%)
Title : Audio Commentary with Director Dome Karukoski
Language : English
Default : No
Forced : No
Text #1
ID : 7
Format : UTF-8
Codec ID : S_TEXT/UTF8
Codec ID/Info : UTF-8 Plain Text
Duration : 1h 44mn
Bit rate : 1 bps
Count of elements : 27
Stream size : 1.45 KiB (0%)
Title : Russian forced
Language : Russian
Default : Yes
Forced : Yes
Text #2
ID : 8
Format : UTF-8
Codec ID : S_TEXT/UTF8
Codec ID/Info : UTF-8 Plain Text
Duration : 1h 45mn
Bit rate : 88 bps
Count of elements : 1394
Stream size : 67.9 KiB (0%)
Title : Russian full iTunes
Language : Russian
Default : No
Forced : No
Text #3
ID : 9
Format : UTF-8
Codec ID : S_TEXT/UTF8
Codec ID/Info : UTF-8 Plain Text
Duration : 1h 44mn
Bit rate : 97 bps
Count of elements : 1599
Stream size : 74.2 KiB (0%)
Title : Russian Focs
Language : Russian
Default : No
Forced : No
Text #4
ID : 10
Format : UTF-8
Codec ID : S_TEXT/UTF8
Codec ID/Info : UTF-8 Plain Text
Duration : 1h 14mn
Bit rate : 0 bps
Count of elements : 8
Stream size : 365 Bytes (0%)
Title : Ukrainian forced
Language : Ukrainian
Default : No
Forced : No
Text #5
ID : 11
Format : UTF-8
Codec ID : S_TEXT/UTF8
Codec ID/Info : UTF-8 Plain Text
Duration : 1h 45mn
Bit rate : 90 bps
Count of elements : 1390
Stream size : 69.6 KiB (0%)
Title : Ukrainian full
Language : Ukrainian
Default : No
Forced : No
Text #6
ID : 12
Format : UTF-8
Codec ID : S_TEXT/UTF8
Codec ID/Info : UTF-8 Plain Text
Duration : 1h 43mn
Bit rate : 59 bps
Count of elements : 1587
Stream size : 45.0 KiB (0%)
Title : English full
Language : English
Default : No
Forced : No
Text #7
ID : 13
Format : UTF-8
Codec ID : S_TEXT/UTF8
Codec ID/Info : UTF-8 Plain Text
Duration : 1h 44mn
Bit rate : 67 bps
Count of elements : 1752
Stream size : 51.3 KiB (0%)
Title : English SDH
Language : English
Default : No
Forced : No
Text #8
ID : 14
Format : UTF-8
Codec ID : S_TEXT/UTF8
Codec ID/Info : UTF-8 Plain Text
Duration : 1h 45mn
Bit rate : 107 bps
Count of elements : 2109
Stream size : 83.0 KiB (0%)
Title : English Commentary
Language : English
Default : No
Forced : No
Menu
00:00:00.000 : :Chapter 01
00:06:27.136 : :Chapter 02
00:11:09.418 : :Chapter 03
00:15:51.116 : :Chapter 04
00:21:00.884 : :Chapter 05
00:25:53.802 : :Chapter 06
00:34:35.031 : :Chapter 07
00:37:46.639 : :Chapter 08
00:42:01.227 : :Chapter 09
00:44:44.098 : :Chapter 10
00:47:39.773 : :Chapter 11
00:52:04.955 : :Chapter 12
00:57:06.422 : :Chapter 13
00:59:59.971 : :Chapter 14
01:04:39.333 : :Chapter 15
01:08:09.001 : :Chapter 16
01:11:17.398 : :Chapter 17
01:14:29.089 : :Chapter 18
01:19:45.655 : :Chapter 19
01:26:09.539 : :Chapter 20
01:32:11.984 : :Chapter 21
01:35:52.496 : :Chapter 22
01:40:05.666 : :Chapter 23
01:45:06.091 : :Chapter 24

Скриншоты

[iv-torrents.ru].t98789.torrent
Torrent: Registered [ 2019-08-13 02:18 ] · 908B76651D875C17C9542ABE051C721865AC091F

Download .torrent

Download

63 KB

Status: checked
Completed: 0 times
Size: 6.23 GB
terms.php
Похожие темы


Display posts:    

Current time is: 09-Dec 16:40

All times are UTC ± 0


You cannot post new topics in this forum
You cannot reply to topics in this forum
You cannot edit your posts in this forum
You cannot delete your posts in this forum
You cannot vote in polls in this forum
You cannot attach files in this forum
You can download files in this forum

!ATTENTION!
The site does not give electronic versions of products, and is engaged only in a collecting and cataloguing of the references sent and published at a forum by our readers. If you are the legal owner of any submitted material and do not wish that the reference to it was in our catalogue, contact us and we shall immediately remove her. Files for an exchange on tracker are given by users of a site, and the administration does not bear the responsibility for their maintenance. The request to not fill in the files protected by copyrights, and also files of the illegal maintenance!