Ивановский Торрент трекер
Яндекс.Погода
DL-List and Torrent activity
Complete
 
     
 
style="text-align: center"
 

[Quote]
HUNTER

Мастерство Открытий / Opening Mastery
Автор: Todd Valentine
Страна: USA
Тематика: Пикап
Тип раздаваемого материала: Лекция
Продолжительность: 03:32:55
Год выпуска: 2018
Язык: Английский
Перевод: Субтитры
Язык субтитров: Русский
Описание: Мастерство Открытий - это 3-часовой семинар по открытию и созданию влечения.
В этом продукте Тодд подробно разбирает открытие (знакомство с девушкой) и начало беседы, создание влечения.
Также добавлены три серии об открытии, с разбором оупенеров.
Открытие очень важно в Игре, так как сразу задает весь тон беседы. Хорошее открытие сразу задает весь фрейм оставшейся беседы, которая в таком случае пройдет намного лучше. Наоборот, плохой оупенер может не только не продвинуть тебя вперед, но и сделать дальше от секса - в том случае если ты покажешь низкую ценность или явную нуждаемость.
Формат курса - 3-часовой семинар. Раньше Тодд проводил его только вживую по аналогии с Хотситом и билет на него стоил 300$.
Недавно он вышел в формате видео курса.
Качество: HDRip
Формат: MP4
Видео кодек: H.264
Аудио кодек: AAC

скрытый текст

Видео
Идентификатор : 1
Формат : AVC
Формат/Информация : Advanced Video Codec
Профиль формата : Main@L3.1
Настройки формата : CABAC / 3 Ref Frames
Параметр CABAC формата : Да
Параметр RefFrames формата : 3 кадра
Идентификатор кодека : avc1
Идентификатор кодека/Информация : Advanced Video Coding
Продолжительность : 3 ч. 4 м.
Битрейт : 723 Кбит/сек
Ширина : 1280 пикселей
Высота : 720 пикселей
Соотношение сторон : 16:9
Режим частоты кадров : Переменный
Частота кадров : 23,976 (24000/1001) кадра/сек
Минимальная частота кадров : 23,974 кадра/сек
Максимальная частота кадров : 23,981 кадра/сек
Цветовое пространство : YUV
Субдискретизация насыщенности : 4:2:0
Битовая глубина : 8 бит
Тип развёртки : Прогрессивная
Бит/(Пиксели*Кадры) : 0.033
Размер потока : 951 Мбайт (85%)
Заголовок : ISO Media file produced by Google Inc. Created on: 11/24/2017.
Дата кодирования : UTC 2017-11-24 12:40:40
Дата пометки : UTC 2017-11-24 12:40:40
Цветовой диапазон : Limited
Основные цвета : BT.709
Характеристики трансфера : BT.709
Коэффициенты матрицы : BT.709
Codec configuration box : avcC
Аудио
Идентификатор : 2
Формат : AAC LC
Формат/Информация : Advanced Audio Codec Low Complexity
Идентификатор кодека : mp4a-40-2
Продолжительность : 3 ч. 4 м.
Вид битрейта : Переменный
Битрейт : 126 Кбит/сек
Каналы : 2 канала
Channel layout : L R
Частота : 44,1 КГц
Частота кадров : 43,066 кадра/сек (1024 SPF)
Метод сжатия : С потерями
Размер потока : 165 Мбайт (15%)
Заголовок : ISO Media file produced by Google Inc. Created on: 11/24/2017.
Дата кодирования : UTC 2017-11-24 12:40:40
Дата пометки : UTC 2017-11-24 12:40:40

Скриншоты





Display posts:    

Current time is: 16-Oct 06:47

All times are UTC ± 0


You cannot post new topics in this forum
You cannot reply to topics in this forum
You cannot edit your posts in this forum
You cannot delete your posts in this forum
You cannot vote in polls in this forum
You cannot attach files in this forum
You cannot download files in this forum

!ATTENTION!
The site does not give electronic versions of products, and is engaged only in a collecting and cataloguing of the references sent and published at a forum by our readers. If you are the legal owner of any submitted material and do not wish that the reference to it was in our catalogue, contact us and we shall immediately remove her. Files for an exchange on tracker are given by users of a site, and the administration does not bear the responsibility for their maintenance. The request to not fill in the files protected by copyrights, and also files of the illegal maintenance!