Ивановский Торрент трекер
Яндекс.Погода
Статистика раздачи
Размер:  1.46 GB   |    Зарегистрирован:  6 лет 8 месяцев   |    Скачан:  17 раз
DL-List: Нет

Полного источника не было: 5 лет 11 месяцев

 
     
 
 
 

[Цитировать]
Shalun

Титаник 2 / Titanic 2-Страна: США
Жанр: приключения
Год выпуска: 2010
Продолжительность: 01:29:50-Перевод: Профессиональный (двухголосый закадровый) SyFy
Отдельная благодарность alenavova за звук и Дьябло за синхронизацию
Cубтитры: нет
Режиссер: Шэйн Ван Дайк / Shane Van Dyke-В ролях: Брюс Дэвисон, Брук Бернс, Шэйн Ван Дайк, Мари Уэстбрук, Джералд Уэбб, Хармони Блоссом, Майлс Крэнфорд, Д.С. Дуглас, Эрика Дьюк, Майкл Гальо-Описание: К 100-летию первоначального рейса знаменитого лайнера приурочили выход в море современного роскошного корабля «Титаник 2». Он должен проделать тот же путь, что и его предшественник. Но в пути его ждет опасность — цунами перемещает айсберг и он оказывается на пути лайнера. Пассажиры и члены экипажа должны бороться, чтобы избежать печальной участи.-Качество видео: HDRip
Формат видео: AVI
Видео: 720x400 (1.80:1), 23.976 fps, XviD build 50 ~2126 kbps avg, 0.31 bit/pixel
Аудио: 48 kHz, AC3 Dolby Digital, 2/0 (L,R) ch, ~192 kbps

MediaInfo

General
Complete name : F:\Фильмы\Titanic.II.2010.DVDRip.avi
Format : AVI
Format/Info : Audio Video Interleave
File size : 1.46 GiB
Duration : 1h 29mn
Overall bit rate : 2 328 Kbps
Writing application : VirtualDubMod 1.5.10.3 | www.virtualdub-fr.org || (build 2550/release)
Writing library : VirtualDubMod build 2550/release
Video
ID : 0
Format : MPEG-4 Visual
Format profile : Advanced Simple@L5
Format settings, BVOP : Yes
Format settings, QPel : No
Format settings, GMC : No warppoints
Format settings, Matrix : Custom
Codec ID : XVID
Codec ID/Hint : XviD
Duration : 1h 29mn
Bit rate : 2 127 Kbps
Width : 720 pixels
Height : 400 pixels
Display aspect ratio : 16:9
Frame rate : 23.976 fps
Color space : YUV
Chroma subsampling : 4:2:0
Bit depth : 8 bits
Scan type : Progressive
Bits/(Pixel*Frame) : 0.308
Stream size : 1.33 GiB (91%)
Writing library : XviD 1.2.1 (UTC 2008-12-04)
Audio
ID : 1
Format : AC-3
Format/Info : Audio Coding 3
Mode extension : CM (complete main)
Codec ID : 2000
Duration : 1h 29mn
Bit rate mode : Constant
Bit rate : 192 Kbps
Channel(s) : 2 channels
Channel positions : Front: L R
Sampling rate : 48.0 KHz
Bit depth : 16 bits
Stream size : 123 MiB (8%)
Alignment : Split accross interleaves
Interleave, duration : 42 ms (1.00 video frame)
Interleave, preload duration : 500 ms
[iv-torrents.ru].t48.torrent
Торрент: Зарегистрирован [ 2012-07-21 06:06 ] · D386E393750E7B75B21F4EC5AACA10CEB1EFEE4A

Скачать .torrent

Скачать

15 KB

Статус: проверено
Скачан: 17 раз
Размер: 1.46 GB
terms.php


Быстрый ответ

Имя:

               
       
     
Для отправки сообщений необходимо включить JavaScript
Показать сообщения:    

Текущее время: 24-Мар 20:05

Часовой пояс: UTC ± 0


Вы можете начинать темы
Вы можете отвечать на сообщения
Вы не можете редактировать свои сообщения
Вы не можете удалять свои сообщения
Вы не можете голосовать в опросах
Вы не можете прикреплять файлы к сообщениям
Вы можете скачивать файлы

!ВНИМАНИЕ!
Сайт не предоставляет электронные версии произведений, а занимается лишь коллекционированием и каталогизацией ссылок, присылаемых и публикуемых на форуме нашими читателями. Если вы являетесь правообладателем какого-либо представленного материала и не желаете, чтобы ссылка на него находилась в нашем каталоге, свяжитесь с нами, и мы незамедлительно удалим ее. Файлы для обмена на трекере предоставлены пользователями сайта, и администрация не несет ответственности за их содержание. Просьба не заливать файлы, защищенные авторскими правами, а также файлы нелегального содержания!