This Old House. Season#32 Cambridge and Essex Houses [2012-2013, Строительство, WEBRip, ENG] :: Ивановский Торрент трекер
Важное объявление!
У Нас Все раздачи мультитрекерные, при нуле пиров в релизах, можете смело вставать на закачку!
Статистика раздачи
Размер:     |    Зарегистрирован:     |    Скачан:     |   
Нет
 
     
 
 
Автор Сообщение

HUNTER

Стаж:
4 года 11 месяцев
Сообщений:
66052

Репутация: 101

[+] [-]
Вне форума [Профиль] [ЛС]

This Old House. Season#32 Cambridge and Essex Houses
Страна: USA
Тематика: Строительство
Тип раздаваемого материала: Видеоурок
Продолжительность: 26 серий по 25 минут
Год выпуска: 2012-2013
Язык: Английский
Перевод: Отсутствует
Язык субтитров: Английский-Описание: В новом сезоне команда старых янки Норм, Томми, Ричард и Роджер перестраивают дома в Кембридже и Эссексе штата Массачусетс.
Кэмбридж
Новые хозяева дома хотят сделать интерьер в скандинавском стиле. Снаружи это останется классическим коттеджем как предписывает комисия по сохранению архитектуры.
Эссекс
Дом переделывается для пожилых людей со всеми удобствами на первом этаже. Так чтобы ездить на инвалидном кресле.
Надеюсь с английскими субтитрами станет проще разбираться в терминах.
Остальные сезоны This Old House здесь -> http://rutracker.org/forum/viewtopic.php?t=3942866-Качество: WEBRip
Формат: MP4
Видео: H.264, 1280x720, 16:9, 8093 kbps, 30 fps
Аудио: AAC, 192 kbps, 48 kHz, 2 ch

MediaInfo

Format : MPEG-4Format profile : Base Media / Version 2Codec ID : mp42File size : 1.43 GiBDuration : 23mn 43sOverall bit rate mode : VariableOverall bit rate : 8 636 KbpsEncoded date : UTC 2012-09-19 23:56:36Tagged date : UTC 2012-09-19 23:56:36Writing library : Apple QuickTime
VideoID : 4Format : AVCFormat/Info : Advanced Video CodecFormat profile : High@L3.1Format settings, CABAC : NoFormat settings, ReFrames : 2 framesCodec ID : avc1Codec ID/Info : Advanced Video CodingDuration : 23mn 43sSource duration : 23mn 43sBit rate : 8 093 KbpsWidth : 1 280 pixelsHeight : 720 pixelsDisplay aspect ratio : 16:9Frame rate mode : ConstantFrame rate : 30.000 fpsColor space : YUVChroma subsampling : 4:2:0Bit depth : 8 bitsScan type : ProgressiveBits/(Pixel*Frame) : 0.293Stream size : 1.34 GiB (94%)Source stream size : 679 MiB (46%)Language : EnglishEncoded date : UTC 2012-09-19 23:56:36Tagged date : UTC 2012-09-19 23:56:36mdhd_Duration : 1423600Color primaries : BT.709Transfer characteristics : BT.709Matrix coefficients : BT.709
AudioID : 2Format : AACFormat/Info : Advanced Audio CodecFormat profile : LCCodec ID : 40Duration : 23mn 43sBit rate mode : VariableBit rate : 192 KbpsMaximum bit rate : 199 KbpsChannel(s) : 2 channelsChannel positions : Front: L RSampling rate : 48.0 KHzCompression mode : LossyStream size : 32.6 MiB (2%)Language : EnglishEncoded date : UTC 2012-09-19 23:56:36Tagged date : UTC 2012-09-19 23:56:36

_________________
Показать сообщения:    

Текущее время: Сегодня 12:08

Часовой пояс: GMT



Вы не можете начинать темы
Вы не можете отвечать на сообщения
Вы не можете редактировать свои сообщения
Вы не можете удалять свои сообщения
Вы не можете голосовать в опросах
Вы не можете прикреплять файлы к сообщениям
Вы не можете скачивать файлы