Важное объявление!
У Нас Все раздачи мультитрекерные, при нуле пиров в релизах, можете смело вставать на закачку!
 
Автор Сообщение

HUNTER

Стаж:
4 года 7 месяцев
Сообщений:
61605

Репутация: 101

[+] [-]
Вне форума [Профиль] [ЛС]

This Old House
Страна: USA
Тематика: Ремонт, реставрация, обустройство дома
Тип раздаваемого материала: Обучающая ТВ-передача
Продолжительность серии: 00:25
Годы выпуска: 1979-2012
Язык: Английский
Перевод: Отсутствует-Описание: Эта передача посвящена ремонту и восстановлению старых домов. Она вдохновила многие поколения американцев заботится о своем жилье, улучшать его сохраняя традиции. Команда строителей с 30-летним стажем помогает владельцам перестраивать и восстанавливать дома Новой Англии в окрестностях Бостона и других городах Америки. Один из мастеров Norm Abram, широко известен благодаря New Yankee Workshop http://rutracker.org/forum/viewtopic.php?t=2592938. Он и по сей день является главным плотником и ведущим This Old House.

О выходах серий:
  • Получасовые выпуски TOH выходят раз в неделю на канале PBS
  • В 2001 году была запущена дочка под названием Ask TOH http://rutracker.org/forum/viewtopic.php?t=3826925, где мастера отвечают на вопросы зрителей и обучают мелкому ремонту
  • TOH совместно Ask TOH образуют часовую программу This Оld House Hour
Серии в раздаче пронумерованы как на официальном сайте. Отдельные старожилы считают сезоны по годам. Получается на два больше. Например: #3101 -> S33E01. Релизов на DVD я не нашел. Однако в 90-х предлагали заказать на VHS.
Доп. информация: В раздаче постепенно будут представлены последние сезоны и в качестве ретроспективы отдельные передачи 80-х.-Качество: TVRip, WebRip
Формат: AVI, Webm, mp4
Видео кодек: XviD, VP8, AVC
Аудио кодек: MP3, AAC

Скриншоты

Проекты

-
The Dorchester House 1980Programs #0101, 0102, 0106-0109, 0113

MediaInfo

Формат : MPEG-PSРазмер файла : 285 МбайтПродолжительность : 28 м.Общий поток : 1393 Кбит/сек
ВидеоИдентификатор : 224 (0xE0)Формат : MPEG VideoВерсия формата : Version 1Параметр BVOP формата : ДаПараметр матрицы формата : По умолчаниюПродолжительность : 28 м.Битрейт : 1134 Кбит/секШирина : 352 пикселяВысота : 240 пикселейСоотношение сторон : 4:3Частота кадров : 29,970 кадров/секСтандарт вещания : NTSCЦветовое пространство : YUVБитовая глубина : 8 битТип развёртки : ПрогрессивнаяМетод сжатия : С потерямиБит/(Пиксели*Кадры) : 0.448Размер потока : 234 Мбайт (82%)
АудиоИдентификатор : 192 (0xC0)Формат : MPEG AudioВерсия формата : Version 1Профиль формата : Layer 2Продолжительность : 28 м.Вид битрейта : ПостоянныйБитрейт : 224 Кбит/секКаналы : 2 каналаЧастота : 44,1 КГцМетод сжатия : С потерямиЗадержка видео : -62 мс.Размер потока : 45,9 Мбайт (16%)
-
The Woburn House 1982Programs #0201-0204, 0208-0210, 0212, 0213

MediaInfo

Формат : MPEG-PSРазмер файла : 285 МбайтПродолжительность : 28 м.Общий поток : 1393 Кбит/сек
ВидеоИдентификатор : 224 (0xE0)Формат : MPEG VideoВерсия формата : Version 1Параметр BVOP формата : ДаПараметр матрицы формата : По умолчаниюПродолжительность : 28 м.Битрейт : 1134 Кбит/секШирина : 352 пикселяВысота : 240 пикселейСоотношение сторон : 4:3Частота кадров : 29,970 кадров/секСтандарт вещания : NTSCЦветовое пространство : YUVБитовая глубина : 8 битТип развёртки : ПрогрессивнаяМетод сжатия : С потерямиБит/(Пиксели*Кадры) : 0.448Размер потока : 233 Мбайт (82%)
АудиоИдентификатор : 192 (0xC0)Формат : MPEG AudioВерсия формата : Version 1Профиль формата : Layer 2Продолжительность : 28 м.Вид битрейта : ПостоянныйБитрейт : 224 Кбит/секКаналы : 2 каналаЧастота : 44,1 КГцМетод сжатия : С потерямиЗадержка видео : -23 мс.Размер потока : 45,8 Мбайт (16%)
-
The Austin House Project 2007Programs #2620-2626Цель проекта в Остине получить пять звезд - наивысший рейтинг за сохранение экологии и энерго-эффективность по программе зеленого строительства принятой в штате Техас.

MediaInfo

Формат : WebMВерсия формата : Version 2Размер файла : 152 МбайтПродолжительность : 24 м.Режим общего битрейта : ПеременныйОбщий поток : 860 Кбит/секПрограмма кодирования : googleБиблиотека кодирования : google
ВидеоИдентификатор : 1Формат : VP8Идентификатор кодека : V_VP8Продолжительность : 24 м.Битрейт : 721 Кбит/секШирина : 534 пикселяВысота : 360 пикселейСоотношение сторон : 3:2Частота кадров : 29,970 кадров/секМетод сжатия : С потерямиБит/(Пиксели*Кадры) : 0.125Размер потока : 127 Мбайт (84%)Язык : EnglishDefault : ДаForced : Нет
АудиоИдентификатор : 2Формат : VorbisПараметр Floor формата : 1Идентификатор кодека : A_VORBISПродолжительность : 24 м.Вид битрейта : ПеременныйБитрейт : 96,0 Кбит/секКаналы : 2 каналаЧастота : 44,1 КГцМетод сжатия : С потерямиРазмер потока : 16,9 Мбайт (11%)Язык : EnglishDefault : ДаForced : Нет
-
New Orleans Rebuilds 2007-2008Programs #2717-2726

MediaInfo

Формат : WebMВерсия формата : Version 2Размер файла : 229 МбайтПродолжительность : 24 м.Режим общего битрейта : ПеременныйОбщий поток : 1282 Кбит/секПрограмма кодирования : googleБиблиотека кодирования : google
ВидеоИдентификатор : 1Формат : VP8Идентификатор кодека : V_VP8Продолжительность : 24 м.Битрейт : 1095 Кбит/секШирина : 854 пикселяВысота : 480 пикселейСоотношение сторон : 16:9Частота кадров : 29,970 кадров/секМетод сжатия : С потерямиБит/(Пиксели*Кадры) : 0.089Размер потока : 195 Мбайт (85%)Язык : EnglishDefault : ДаForced : Нет
АудиоИдентификатор : 2Формат : VorbisПараметр Floor формата : 1Идентификатор кодека : A_VORBISПродолжительность : 24 м.Вид битрейта : ПеременныйБитрейт : 128 Кбит/секКаналы : 2 каналаЧастота : 44,1 КГцМетод сжатия : С потерямиРазмер потока : 22,8 Мбайт (10%)Язык : EnglishDefault : ДаForced : Нет
-
The Weston House 2008Programs #2801-2816На этот раз на месте старой постройки хозяева решили поставить полностью новый дом, элементы которого изготавливались на заводе.

MediaInfo

Формат : AVIФормат/Информация : Audio Video InterleaveРазмер файла : 259 МбайтПродолжительность : 24 м.Общий поток : 1455 Кбит/секБиблиотека кодирования : VirtualDub-MPEG2 build 24586/release
ВидеоИдентификатор : 0Формат : MPEG-4 VisualПрофиль формата : Advanced Simple@L5Параметр BVOP формата : 2Параметр QPel формата : НетПараметр GMC формата : Без точки переходаПараметр матрицы формата : Default (H.263)Режим смешивания : Сжатый битовый потокИдентификатор кодека : XVIDИдентификатор кодека/Подсказка : XviDПродолжительность : 24 м.Битрейт : 1188 Кбит/секШирина : 624 пикселяВысота : 352 пикселяСоотношение сторон : 16:9Частота кадров : 29,970 кадров/секЦветовое пространство : YUVСубдискретизация насыщенности : 4:2:0Битовая глубина : 8 битТип развёртки : ПрогрессивнаяМетод сжатия : С потерямиБит/(Пиксели*Кадры) : 0.180Размер потока : 211 Мбайт (82%)Библиотека кодирования : XviD 1.1.2 (UTC 2006-11-01)
АудиоИдентификатор : 1Формат : MPEG AudioВерсия формата : Version 1Профиль формата : Layer 2Идентификатор кодека : 50Продолжительность : 24 м.Вид битрейта : ПостоянныйБитрейт : 256 Кбит/секКаналы : 2 каналаЧастота : 48,0 КГцМетод сжатия : С потерямиРазмер потока : 45,5 Мбайт (18%)Выравнивание : Соединение по промежуткамПродолжительность промежутка : 33 мс. (1,00 видеокадр)Время предзагрузки промежутка : 504 мс.
-
The New York City House 2008Programs #2817-2826Посмотреть трейлер

MediaInfo

Формат : AVIФормат/Информация : Audio Video InterleaveРазмер файла : 236 МбайтПродолжительность : 24 м.Общий поток : 1339 Кбит/секБиблиотека кодирования : VirtualDub-MPEG2 build 24586/release
ВидеоИдентификатор : 0Формат : MPEG-4 VisualПрофиль формата : Advanced Simple@L5Параметр BVOP формата : 2Параметр QPel формата : НетПараметр GMC формата : Без точки переходаПараметр матрицы формата : Default (H.263)Режим смешивания : Сжатый битовый потокИдентификатор кодека : XVIDИдентификатор кодека/Подсказка : XviDПродолжительность : 24 м.Битрейт : 1199 Кбит/секШирина : 624 пикселяВысота : 352 пикселяСоотношение сторон : 16:9Частота кадров : 29,970 кадров/секЦветовое пространство : YUVСубдискретизация насыщенности : 4:2:0Битовая глубина : 8 битТип развёртки : ПрогрессивнаяМетод сжатия : С потерямиБит/(Пиксели*Кадры) : 0.182Размер потока : 212 Мбайт (90%)Библиотека кодирования : XviD 1.1.2 (UTC 2006-11-01)
АудиоИдентификатор : 1Формат : MPEG AudioВерсия формата : Version 1Профиль формата : Layer 3Режим : Joint stereoРасширение режима : MS StereoИдентификатор кодека : 55Идентификатор кодека/Подсказка : MP3Продолжительность : 24 м.Вид битрейта : ПостоянныйБитрейт : 128 Кбит/секКаналы : 2 каналаЧастота : 48,0 КГцМетод сжатия : С потерямиРазмер потока : 22,6 Мбайт (10%)Выравнивание : Разделение по промежуткамПродолжительность промежутка : 33 мс. (1,00 видеокадр)Время предзагрузки промежутка : 500 мс.
-
Newton Centre Project 2009Programs #2901-2916

MediaInfo

Формат : AVIФормат/Информация : Audio Video InterleaveПрофиль формата : OpenDMLНастройки формата : recРазмер файла : 229 МбайтПродолжительность : 24 м.Общий поток : 1312 Кбит/секПрограмма кодирования : AVI-Mux GUI 1.17.7, Aug 8 2006 20:59:17
ВидеоИдентификатор : 0Формат : MPEG-4 VisualПрофиль формата : Advanced Simple@L5Параметр BVOP формата : 2Параметр QPel формата : НетПараметр GMC формата : Без точки переходаПараметр матрицы формата : Default (H.263)Идентификатор кодека : XVIDИдентификатор кодека/Подсказка : XviDПродолжительность : 24 м.Битрейт : 1148 Кбит/секШирина : 576 пикселейВысота : 320 пикселейСоотношение сторон : 16:9Частота кадров : 29,970 кадров/секЦветовое пространство : YUVСубдискретизация насыщенности : 4:2:0Битовая глубина : 8 битТип развёртки : ПрогрессивнаяМетод сжатия : С потерямиБит/(Пиксели*Кадры) : 0.208Размер потока : 201 Мбайт (87%)Библиотека кодирования : XviD 1.1.2 (UTC 2006-11-01)
АудиоИдентификатор : 1Формат : MPEG AudioВерсия формата : Version 1Профиль формата : Layer 3Режим : Joint stereoРасширение режима : MS StereoИдентификатор кодека : 55Идентификатор кодека/Подсказка : MP3Продолжительность : 24 м.Вид битрейта : ПостоянныйБитрейт : 160 Кбит/секКаналы : 2 каналаЧастота : 48,0 КГцМетод сжатия : С потерямиРазмер потока : 28,0 Мбайт (12%)Выравнивание : Соединение по промежуткамПродолжительность промежутка : 654 мс. (19,62 видеокадров)Время предзагрузки промежутка : 216 мс.Заголовок : toh_2901_audБиблиотека кодирования : LAME3.98rНастройки программы : -m j -V 4 -q 2 -lowpass 17.5 -b 160
-
Roxbury House Project 2009Programs #2917-2926

MediaInfo

Формат : AVIФормат/Информация : Audio Video InterleaveПрофиль формата : OpenDMLНастройки формата : recРазмер файла : 229 МбайтПродолжительность : 24 м.Общий поток : 1309 Кбит/секПрограмма кодирования : AVI-Mux GUI 1.17.7, Aug 8 2006 20:59:17
ВидеоИдентификатор : 0Формат : MPEG-4 VisualПрофиль формата : Advanced Simple@L5Параметр BVOP формата : 2Параметр QPel формата : НетПараметр GMC формата : Без точки переходаПараметр матрицы формата : Default (H.263)Идентификатор кодека : XVIDИдентификатор кодека/Подсказка : XviDПродолжительность : 24 м.Битрейт : 1145 Кбит/секШирина : 656 пикселейВысота : 368 пикселейСоотношение сторон : 16:9Частота кадров : 29,970 кадров/секЦветовое пространство : YUVСубдискретизация насыщенности : 4:2:0Битовая глубина : 8 битТип развёртки : ПрогрессивнаяМетод сжатия : С потерямиБит/(Пиксели*Кадры) : 0.158Размер потока : 200 Мбайт (87%)Библиотека кодирования : XviD 1.1.2 (UTC 2006-11-01)
АудиоИдентификатор : 1Формат : MPEG AudioВерсия формата : Version 1Профиль формата : Layer 3Режим : Joint stereoРасширение режима : MS StereoИдентификатор кодека : 55Идентификатор кодека/Подсказка : MP3Продолжительность : 24 м.Вид битрейта : ПостоянныйБитрейт : 160 Кбит/секКаналы : 2 каналаЧастота : 48,0 КГцМетод сжатия : С потерямиРазмер потока : 28,0 Мбайт (12%)Выравнивание : Соединение по промежуткамПродолжительность промежутка : 653 мс. (19,56 видеокадров)Время предзагрузки промежутка : 216 мс.Заголовок : KOCE-HD (50.1) 2010-02-06_152900_px_audioБиблиотека кодирования : LAME3.98rНастройки программы : -m j -V 4 -q 2 -lowpass 17.5 -b 160
-
Auburndale House 2010Programs #3001-3016Посмотреть трейлер

MediaInfo

Формат : AVIФормат/Информация : Audio Video InterleaveРазмер файла : 502 МбайтПродолжительность : 23 м.Общий поток : 2938 Кбит/секБиблиотека кодирования : VirtualDub-MPEG2 build 24586/release
ВидеоИдентификатор : 0Формат : MPEG-4 VisualПрофиль формата : Advanced Simple@L5Параметр BVOP формата : 2Параметр QPel формата : НетПараметр GMC формата : Без точки переходаПараметр матрицы формата : Default (H.263)Режим смешивания : Сжатый битовый потокИдентификатор кодека : XVIDИдентификатор кодека/Подсказка : XviDПродолжительность : 23 м.Битрейт : 2798 Кбит/секШирина : 512 пикселейВысота : 288 пикселейСоотношение сторон : 16:9Частота кадров : 29,970 кадров/секЦветовое пространство : YUVСубдискретизация насыщенности : 4:2:0Битовая глубина : 8 битТип развёртки : ПрогрессивнаяМетод сжатия : С потерямиБит/(Пиксели*Кадры) : 0.633Размер потока : 478 Мбайт (95%)Библиотека кодирования : XviD 1.1.2 (UTC 2006-11-01)
АудиоИдентификатор : 1Формат : MPEG AudioВерсия формата : Version 1Профиль формата : Layer 3Режим : Joint stereoРасширение режима : MS StereoИдентификатор кодека : 55Идентификатор кодека/Подсказка : MP3Продолжительность : 23 м.Вид битрейта : ПостоянныйБитрейт : 128 Кбит/секКаналы : 2 каналаЧастота : 48,0 КГцМетод сжатия : С потерямиРазмер потока : 21,9 Мбайт (4%)Выравнивание : Разделение по промежуткамПродолжительность промежутка : 33 мс. (1,00 видеокадр)Время предзагрузки промежутка : 500 мс.
-
Los Angeles House 2010Programs #3017-3026Посмотреть трейлер

MediaInfo

Формат : AVIФормат/Информация : Audio Video InterleaveРазмер файла : 364 МбайтПродолжительность : 23 м.Общий поток : 2128 Кбит/секБиблиотека кодирования : VirtualDub-MPEG2 build 24586/release
ВидеоИдентификатор : 0Формат : MPEG-4 VisualПрофиль формата : Advanced Simple@L5Параметр BVOP формата : 2Параметр QPel формата : НетПараметр GMC формата : Без точки переходаПараметр матрицы формата : Default (H.263)Режим смешивания : Сжатый битовый потокИдентификатор кодека : XVIDИдентификатор кодека/Подсказка : XviDПродолжительность : 23 м.Битрейт : 1988 Кбит/секШирина : 512 пикселейВысота : 288 пикселейСоотношение сторон : 16:9Частота кадров : 29,970 кадров/секЦветовое пространство : YUVСубдискретизация насыщенности : 4:2:0Битовая глубина : 8 битТип развёртки : ПрогрессивнаяМетод сжатия : С потерямиБит/(Пиксели*Кадры) : 0.450Размер потока : 340 Мбайт (93%)Библиотека кодирования : XviD 1.1.2 (UTC 2006-11-01)
АудиоИдентификатор : 1Формат : MPEG AudioВерсия формата : Version 1Профиль формата : Layer 3Режим : Joint stereoРасширение режима : MS StereoИдентификатор кодека : 55Идентификатор кодека/Подсказка : MP3Продолжительность : 23 м.Вид битрейта : ПостоянныйБитрейт : 128 Кбит/секКаналы : 2 каналаЧастота : 48,0 КГцМетод сжатия : С потерямиРазмер потока : 21,9 Мбайт (6%)Выравнивание : Разделение по промежуткамПродолжительность промежутка : 33 мс. (1,00 видеокадр)Время предзагрузки промежутка : 500 мс.Библиотека кодирования : LAME3.97
-
Bedford House 2011 NEW!Programs #3101-3116Посмотреть трейлер

MediaInfo

Формат : MPEG-4Профиль формата : Base Media / Version 2Идентификатор кодека : mp42Размер файла : 1,43 ГбайтПродолжительность : 23 м.Режим общего битрейта : ПеременныйОбщий поток : 8636 Кбит/секДата кодирования : UTC 2011-11-10 22:01:21Дата пометки : UTC 2011-11-10 22:01:21Библиотека кодирования : Apple QuickTimeПримечание : Скачано при помощи Replay Media Catcher 4 - www.applian.com
ВидеоИдентификатор : 4Формат : AVCФормат/Информация : Advanced Video CodecПрофиль формата : High@L3.1Параметр CABAC формата : НетПараметр ReFrames формата : 2 кадраИдентификатор кодека : avc1Идентификатор кодека/Информация : Advanced Video CodingПродолжительность : 23 м.Битрейт : 8094 Кбит/секШирина : 1280 пикселейВысота : 720 пикселейСоотношение сторон : 16:9Режим частоты кадров : ПостоянныйЧастота кадров : 30,000 кадров/секЦветовое пространство : YUVСубдискретизация насыщенности : 4:2:0Битовая глубина : 8 битТип развёртки : ПрогрессивнаяБит/(Пиксели*Кадры) : 0.293Размер потока : 1,34 Гбайт (94%)Язык : EnglishДата кодирования : UTC 2011-11-10 22:01:21Дата пометки : UTC 2011-11-10 22:01:21Material_Duration : 1423133Material_StreamSize : 711254043Material_FrameCount : 42694Основные цвета : BT.709-5, BT.1361, IEC 61966-2-4, SMPTE RP177Характеристики трансфера : BT.709-5, BT.1361Коэффициенты матрицы : BT.709-5, BT.1361, IEC 61966-2-4 709, SMPTE RP177
АудиоИдентификатор : 2Формат : AACФормат/Информация : Advanced Audio CodecПрофиль формата : LCИдентификатор кодека : 40Продолжительность : 23 м.Вид битрейта : ПеременныйБитрейт : 192 Кбит/секМаксимальный битрейт : 200 Кбит/секКаналы : 2 каналаРасположение каналов : Front: L RЧастота : 48,0 КГцМетод сжатия : С потерямиРазмер потока : 32,6 Мбайт (2%)Язык : EnglishДата кодирования : UTC 2011-11-10 22:01:21Дата пометки : UTC 2011-11-10 22:01:21
-
The Barrington Beach House 2011 NEW!Programs #3117-3126Посмотреть трейлер

MediaInfo

Формат : MPEG-4Профиль формата : Base Media / Version 2Идентификатор кодека : mp42Размер файла : 1,43 ГбайтПродолжительность : 23 м.Режим общего битрейта : ПеременныйОбщий поток : 8633 Кбит/секДата кодирования : UTC 2012-01-17 19:57:51Дата пометки : UTC 2012-01-17 19:57:51Библиотека кодирования : Apple QuickTime
ВидеоИдентификатор : 4Формат : AVCФормат/Информация : Advanced Video CodecПрофиль формата : High@L3.1Параметр CABAC формата : НетПараметр ReFrames формата : 2 кадраИдентификатор кодека : avc1Идентификатор кодека/Информация : Advanced Video CodingПродолжительность : 23 м.Битрейт : 8091 Кбит/секШирина : 1280 пикселейВысота : 720 пикселейСоотношение сторон : 16:9Режим частоты кадров : ПостоянныйЧастота кадров : 30,000 кадров/секЦветовое пространство : YUVСубдискретизация насыщенности : 4:2:0Битовая глубина : 8 битТип развёртки : ПрогрессивнаяБит/(Пиксели*Кадры) : 0.293Размер потока : 1,34 Гбайт (94%)Язык : EnglishДата кодирования : UTC 2012-01-17 19:57:51Дата пометки : UTC 2012-01-17 19:57:51Material_Duration : 1423800Material_StreamSize : 711551352Material_FrameCount : 42714Основные цвета : BT.709-5, BT.1361, IEC 61966-2-4, SMPTE RP177Характеристики трансфера : BT.709-5, BT.1361Коэффициенты матрицы : BT.709-5, BT.1361, IEC 61966-2-4 709, SMPTE RP177
АудиоИдентификатор : 2Формат : AACФормат/Информация : Advanced Audio CodecПрофиль формата : LCИдентификатор кодека : 40Продолжительность : 23 м.Вид битрейта : ПеременныйБитрейт : 192 Кбит/секМаксимальный битрейт : 203 Кбит/секКаналы : 2 каналаРасположение каналов : Front: L RЧастота : 48,0 КГцМетод сжатия : С потерямиРазмер потока : 32,6 Мбайт (2%)Язык : EnglishДата кодирования : UTC 2012-01-17 19:57:51Дата пометки : UTC 2012-01-17 19:57:51

-

Внимание! Раздача ведётся путём добавления новых серий

Внимание! Раздача ведётся путём добавления новых серий; при каждом добавлении создаётся новый торрент. Чтобы начать докачку новой серии, пользователям необходимо сделать следующее:
(1) остановить скачивание,
(2) удалить старый торрент у себя из клиента (старые серии удалять не надо),
(3) скачать новый торрент и запустить его у себя в клиенте вместо старого, при этом указать клиенту путь в старую папку куда и должно происходить скачивание новых серий.
Ваш клиент при этом должен произвести хеширование (проверку) старой папки (если не производит сам - помогите ему сделать это), и будет докачивать только те серии которых у вас ещё нет. Старые серии при этом не удаляются, а продолжают раздаваться!
Eсли вы уже удалили старые серии, то предотвратить повторную закачку старых серий можно, отжав галочку в соответствующих местах при запуске нового торрента. По возможности, желательно не удалять старые серии как можно дольше чтобы релизёр не столько продолжал раздавать старые серии, а смог сконцентрироваться на новых.
Последнее обновление 1 апреля. Badford house и Barrington beach house. 31 сезон 2011г.

_________________
Показать сообщения:    

Текущее время: Сегодня 23:38

Часовой пояс: GMT



Вы не можете начинать темы
Вы не можете отвечать на сообщения
Вы не можете редактировать свои сообщения
Вы не можете удалять свои сообщения
Вы не можете голосовать в опросах
Вы не можете прикреплять файлы к сообщениям
Вы не можете скачивать файлы
Наши партнеры: интернет магазин Ивановского трикотажа textilla.ru