Важное объявление!
У Нас Все раздачи мультитрекерные, при нуле пиров в релизах, можете смело вставать на закачку!
 
Автор Сообщение

HUNTER

Стаж:
4 года 6 месяцев
Сообщений:
61017

Репутация: 101

[+] [-]
Вне форума [Профиль] [ЛС]

Сумерки. Трилогия / The Twilight Saga. Trilogy Full Screen Edition 4:3-
Доп. информация:
- До сих пор в русском интернете имели хождение только Widescreen версии фильмов.
- Проще говоря, во время просмотра Widescreen версии по телевизору, сверху и снизу идут чёрные поля.
- Это, так называемые, полноэкранные Fullscreen версии фильмов.
- Эти версии никогда в продажу не выходили, даже в США.
- Кадр в них полнее сверху и снизу, но уже по краям.
- То есть в этой версии вы увидите то, чего не видно на Widescreen версии, и наоборот.
- На обычном телевизоре никаких чёрных полей.
- За основу взял запись с телеканала ТНТ, который сделал профессиональный Pan&Scan видеопленки и создал уникальные версии фильмов, которые невозможно найти ни в продаже, ни в сети.

Сумерки / Twilight (2008)

Сумерки / Twilight-
Страна: Германия, США
Жанр: триллер, фэнтези, мелодрама, драма
Год выпуска: 2008
Продолжительность: 01:49:13
Перевод: Профессиональный (дублированный)
Cубтитры: нет
Режиссер: Кэтрин Хардвик / Catherine Hardwicke
В ролях: Кристен Стюарт, Эшли Грин, Роберт Паттинсон, Билли Бурк, Никки Рид, Джексон Рэтбоун, Келлан Латс, Питер Фасинелли, Кэм Жиганде, Тэйлор Лотнер
Описание: Семнадцатилетняя Белла Свон переезжает к своему отцу в Форкс, чтобы не надоедать своим присутствием вечно молодой маме и ее новому мужу. В Форксе она встречает загадочную и очень красивую семью Калленов («В школе заштатного городка таких не увидишь — только на обложках журналов и полотнах голландских мастеров»). Их объединяют редкие черты: глаза золотистого цвета, необычная бледность и совершенная красота. Эдвард Каллен странно реагирует на Беллу (как выясняется позднее, он вампир и никогда не встречал такого дивного запаха крови, как у Беллы). Однако вскоре он спасает Беллу от неуправляемого грузовика, а затем от уличных хулиганов, чем заставляет Беллу задуматься над его настоящей сущностью...
Сэмпл: http://multi-up.com/686955
Качество видео: TVRip
Формат видео: MPG
Видео: MPEG2 Video 720x576 (4:3) 25.00fps 15000kbps
Аудио: MPEG Audio 48000Hz stereo 192kbps

MediaInfo

Video
ID : 224 (0xE0)
Format : MPEG Video
Format version : Version 2
Format profile : Main@Main
Format settings, BVOP : No
Format settings, Matrix : Custom
Format settings, GOP : M=1, N=30
Duration : 1h 49mn
Bit rate mode : Variable
Bit rate : 3 726 Kbps
Maximum bit rate : 15.0 Mbps
Width : 720 pixels
Height : 576 pixels
Display aspect ratio : 4:3
Frame rate : 25.000 fps
Standard : PAL
Color space : YUV
Chroma subsampling : 4:2:0
Bit depth : 8 bits
Scan type : Progressive
Scan order : Top Field First
Compression mode : Lossy
Bits/(Pixel*Frame) : 0.359
Stream size : 2.84 GiB (93%)
Audio
ID : 192 (0xC0)
Format : MPEG Audio
Format version : Version 1
Format profile : Layer 2
Mode : Dual mono
Mode extension : MS Stereo
Duration : 1h 49mn
Bit rate mode : Constant
Bit rate : 192 Kbps
Channel(s) : 2 channels
Sampling rate : 48.0 KHz
Compression mode : Lossy
Delay relative to video : -1s 19ms
Stream size : 150 MiB (5%)

Скриншот c названием фильма

Скриншоты

Сравнение FullScreen и WideScreen


Сумерки. Сага. Новолуние / Twilight Saga. New Moon (2009)

Сумерки. Сага. Новолуние / The Twilight Saga: New Moon-
Страна: США
Жанр: фэнтези, драма, мелодрама, приключения
Год выпуска: 2009
Продолжительность: 01:56:34
Перевод: Профессиональный (дублированный)
Cубтитры: нет
Режиссер: Крис Вайц / Chris Weitz
В ролях: Кристен Стюарт, Роберт Паттинсон, Тэйлор Лотнер, Билли Бёрк, Анна Кендрик, Майкл Уэлш, Джастин Чон, Кристиан Серратос, Эшли Грин, Джексон Рэтбоун, и др.
Описание: Влюбиться в вампира — страшно и романтично. Но потерять любимого, решившего ценой разрыва спасти свою девушку от роли пешки в вечном противостоянии кланов «ночных охотников», — это просто невыносимо. Белла Свон мучительно переживает исчезновение Эдварда и безуспешно ищет забвения в дружбе с мальчишкой-индейцем Джейкобом Блэком. Она даже не подозревает, что её лучший друг — порождение ещё одного «народа Тьмы». Народа, куда более жестокого и опасного, чем аристократы-вампиры.
Сэмпл: http://multi-up.com/686957
Качество видео: TVRip
Формат видео: MPG
Видео: MPEG2 Video 720x576 (4:3) 25.00fps 15000kbps
Аудио: MPEG Audio 48000Hz stereo 192kbps

MediaInfo

Video
ID : 224 (0xE0)
Format : MPEG Video
Format version : Version 2
Format profile : Main@Main
Format settings, BVOP : No
Format settings, Matrix : Custom
Format settings, GOP : M=1, N=15
Duration : 1h 56mn
Bit rate mode : Variable
Bit rate : 3 732 Kbps
Maximum bit rate : 15.0 Mbps
Width : 720 pixels
Height : 576 pixels
Display aspect ratio : 4:3
Frame rate : 25.000 fps
Standard : PAL
Color space : YUV
Chroma subsampling : 4:2:0
Bit depth : 8 bits
Scan type : Progressive
Scan order : Top Field First
Compression mode : Lossy
Bits/(Pixel*Frame) : 0.360
Stream size : 3.04 GiB (93%)
Audio
ID : 192 (0xC0)
Format : MPEG Audio
Format version : Version 1
Format profile : Layer 2
Mode : Dual mono
Mode extension : MS Stereo
Duration : 1h 56mn
Bit rate mode : Constant
Bit rate : 192 Kbps
Channel(s) : 2 channels
Sampling rate : 48.0 KHz
Compression mode : Lossy
Delay relative to video : -571ms
Stream size : 160 MiB (5%)

Скриншот c названием фильма

Скриншоты

Сравнение FullScreen и WideScreen


Сумерки. Сага. Затмение / The Twilight Saga: Eclipse (2010)

Сумерки. Сага. Затмение / The Twilight Saga: Eclipse-
Страна: США
Жанр: Фэнтези, ужасы, триллер, мелодрама
Год выпуска: 2010
Продолжительность: 01:50:32
Перевод: Профессиональный (дублированный)
Cубтитры: нет
Режиссер: Дэвид Слэйд / David Slade
В ролях: Кристен Стюарт, Роберт Паттинсон, Тэйлор Лотнер, Эшли Грин, Келлан Латс, Питер Фачинелли, Брайс Даллас Ховард, Никки Рид, Ксавьер Сэмюэл, Билли Бёрк
Описание: Сиэтл охвачен чередой таинственных убийств, а обуреваемая жаждой мести вампирша продолжает поиски Беллы, снова оказавшейся в смертельной опасности. Кроме того, находясь в эпицентре всех событий, Белла вынуждена делать выбор между любовью к Эдварду и дружбой с Джейкобом, зная что ее решение может послужить толчком к возобновлению давнего противостояния между вампирами и оборотнями.
Сэмпл: http://multi-up.com/690583
Качество видео: TVRip
Формат видео: MPG
Видео: MPEG2 Video 720x576 (4:3) 25.00fps 15000kbps
Аудио: MPEG Audio 48000Hz stereo 192kbps

MediaInfo

Complete name : C:\Кино\Twilight saga (FullScreen)\Сумерки. Сага. Затмение (TVRip) [FullScreen].mpg
Format : MPEG-PS
File size : 3.09 GiB
Duration : 1h 50mn
Overall bit rate mode : Variable
Overall bit rate : 4 003 Kbps
Video
ID : 224 (0xE0)
Format : MPEG Video
Format version : Version 2
Format profile : Main@Main
Format settings, BVOP : Yes
Format settings, Matrix : Custom
Format settings, GOP : M=3, N=30
Duration : 1h 50mn
Bit rate mode : Variable
Bit rate : 3 731 Kbps
Maximum bit rate : 15.0 Mbps
Width : 720 pixels
Height : 576 pixels
Display aspect ratio : 4:3
Frame rate : 25.000 fps
Standard : PAL
Color space : YUV
Chroma subsampling : 4:2:0
Bit depth : 8 bits
Scan type : Progressive
Scan order : Top Field First
Compression mode : Lossy
Bits/(Pixel*Frame) : 0.360
Stream size : 2.88 GiB (93%)
Audio
ID : 192 (0xC0)
Format : MPEG Audio
Format version : Version 1
Format profile : Layer 2
Mode : Dual mono
Mode extension : MS Stereo
Duration : 1h 50mn
Bit rate mode : Constant
Bit rate : 192 Kbps
Channel(s) : 2 channels
Sampling rate : 48.0 KHz
Compression mode : Lossy
Delay relative to video : -1s 138ms
Stream size : 152 MiB (5%)

Скриншот c названием фильма

Скриншоты

Сравнение Fullscreen и Widescreen


Релиз от Gordo.
Вступайте в группу http://vk.com/club33524229
Скачивайте дебютный альбом http://rutracker.org/forum/viewtopic.php?t=4039003
Всем хорошего настроения!

_________________
Показать сообщения:    

Текущее время: Сегодня 22:37

Часовой пояс: GMT



Вы не можете начинать темы
Вы не можете отвечать на сообщения
Вы не можете редактировать свои сообщения
Вы не можете удалять свои сообщения
Вы не можете голосовать в опросах
Вы не можете прикреплять файлы к сообщениям
Вы не можете скачивать файлы
Наши партнеры: интернет магазин Ивановского трикотажа textilla.ru