Важное объявление!
У Нас Все раздачи мультитрекерные, при нуле пиров в релизах, можете смело вставать на закачку!
 
Автор Сообщение

HUNTER

Стаж:
4 года 7 месяцев
Сообщений:
61487

Репутация: 101

[+] [-]
Вне форума [Профиль] [ЛС]

The Fish & The Fly 3 Terrestrials
Страна: Дания
Тематика: Flyfishing
Тип раздаваемого материала: Видеоурок
Продолжительность: 01:43:59
Год выпуска: 2010
Язык: Английский
Перевод: Отсутствует
Описание: 3-й фильм Нильса Вестергарда из серии The fish & The fly. Мортен Оелэнд демонстрирует способы вязания различных имитаций (кузнечик, стрекоза и т.д.) и их работу на воде.
Доп. информация:
Качество: DVD9
Формат: DVD video
Видео кодек: MPEG2
Аудио кодек: AC3
Видео: MPEG Video Version 2, 720x576 pix, 16:9, 6800 kbps, 25 fps
Аудио: Dolby AC3, 192 kbps, 48 kHz, 2 ch
Всех нахлыстовиков - с наступающим Новым Годом!

DVDinfo

Title: Terrestrials
Size: 5.58 Gb ( 5 846 584,00 KBytes ) - DVD-9
Enabled regions: 1, 2, 3, 4, 5, 6, 8
VTS_01 :
Play Length: 00:50:23
Video: PAL 16:9 (720x576) VBR, Auto Letterboxed
Audio:
Not specified (Dolby AC3, 2 ch)
Subtitles:
Dansk
Norsk
Svenska
English
Not specified
Deutsch
VTS_02 :
Play Length: 00:00:09
Video: PAL 16:9 (720x576) VBR, Auto Letterboxed
Subtitles:
Dansk
Norsk
Svenska
English
VTS_03 :
Play Length: 00:00:09
Video: PAL 16:9 (720x576) VBR, Auto Letterboxed
Subtitles:
Dansk
Norsk
Svenska
VTS_04 :
Play Length: 00:00:09
Video: PAL 16:9 (720x576) VBR, Auto Letterboxed
Subtitles:
Dansk
Norsk
Svenska
VTS_05 :
Play Length: 00:00:09
Video: PAL 16:9 (720x576) VBR, Auto Letterboxed
Subtitles:
Dansk
Norsk
Svenska
VTS_06 :
Play Length: 00:00:09
Video: PAL 16:9 (720x576) VBR, Auto Letterboxed
Subtitles:
Dansk
Norsk
Svenska
English
Nederlands
Deutsch
VTS_07 :
Play Length: 00:53:35
Video: PAL 16:9 (720x576) VBR, Auto Letterboxed
Audio:
Not specified, AC3, 2/0 (L,R) ch, 192 kbps, Delay 0 mSec
Subtitles:
Dansk
Norsk
Svenska
English
Not specified
Deutsch
VTS_08 :
Play Length: 00:10:59
Video: PAL 16:9 (720x576) VBR, Auto Letterboxed
Audio:
Not specified (Dolby AC3, 2 ch)
* Menus Information *
VIDEO_TS Menu
Video:
PAL 16:9 (720x576) VBR
Auto Letterboxed
English Language Unit :
Title Menu
VTS_01 Menu
Video:
PAL 16:9 (720x576) VBR
Auto Letterboxed
English Language Unit :
Root Menu
VTS_02 Menu
Video:
PAL 4:3 (720x576) VBR
English Language Unit :
Root Menu
VTS_03 Menu
Video:
PAL 4:3 (720x576) VBR
English Language Unit :
Root Menu
VTS_04 Menu
Video:
PAL 4:3 (720x576) VBR
English Language Unit :
Root Menu
VTS_05 Menu
Video:
PAL 4:3 (720x576) VBR
English Language Unit :
Root Menu
VTS_06 Menu
Video:
PAL 4:3 (720x576) VBR
English Language Unit :
Root Menu
VTS_07 Menu
Video:
PAL 4:3 (720x576) VBR
English Language Unit :
Root Menu
VTS_08 Menu
Video:
PAL 4:3 (720x576) VBR
English Language Unit :
Root Menu

MediaInfo

Общее
Полное имя : C:\Users\Videos\Terrestrials\VIDEO_TS\VTS_01_1.VOB
Формат : MPEG-PS
Размер файла : 1024 Мбайт
Продолжительность : 20 м.
Общий поток : 7136 Кбит/сек
Видео
Идентификатор : 224 (0xE0)
Формат : MPEG Video
Версия формата : Version 2
Профиль формата : Main@Main
Параметр BVOP формата : Да
Параметр матрицы формата : Выборочная
Параметр GOP формата : M=3, N=12
Продолжительность : 20 м.
Битрейт : 6800 Кбит/сек
Ширина : 720 пикселей
Высота : 576 пикселей
Соотношение сторон : 16:9
Частота кадров : 25,000 кадров/сек
Стандарт вещания : PAL
Цветовое пространство : YUV
Субдискретизация насыщенности : 4:2:0
Битовая глубина : 8 бит
Тип развёртки : Чересстрочная
Порядок развёртки : Верхнее поле первое
Метод сжатия : С потерями
Бит/(Пиксели*Кадры) : 0.656
Временной код первого кадра : 00:00:00:00
Оригинал временного кода : Group of pictures header
Размер потока : 976 Мбайт (95%)
Основные цвета : BT.601 PAL
Характеристики трансфера : BT.470 System B, BT.470 System G
Коэффициенты матрицы : BT.601
Аудио
Идентификатор : 189 (0xBD)-128 (0x80)
Формат : AC-3
Формат/Информация : Audio Coding 3
Расширение режима : CM (complete main)
Параметр Endianness формата : Big
Режим смешивания : DVD-Video
Продолжительность : 20 м.
Вид битрейта : Постоянный
Битрейт : 192 Кбит/сек
Каналы : 2 канала
Расположение каналов : Front: L R
Частота : 48,0 КГц
Битовая глубина : 16 бит
Метод сжатия : С потерями
Размер потока : 27,5 Мбайт (3%)
Текст #1
Идентификатор : 189 (0xBD)-32 (0x20)
Формат : RLE
Формат/Информация : Run-length encoding
Режим смешивания : DVD-Video
Задержка видео : 1 с. 800 мс.
Текст #2
Идентификатор : 189 (0xBD)-33 (0x21)
Формат : RLE
Формат/Информация : Run-length encoding
Режим смешивания : DVD-Video
Задержка видео : 2 с. 120 мс.
Текст #3
Идентификатор : 189 (0xBD)-34 (0x22)
Формат : RLE
Формат/Информация : Run-length encoding
Режим смешивания : DVD-Video
Задержка видео : 5 с. 440 мс.
Меню

Скриншоты меню

, ,

Скриншоты

, , ,
, , , ,

_________________
Показать сообщения:    

Текущее время: Сегодня 02:42

Часовой пояс: GMT



Вы не можете начинать темы
Вы не можете отвечать на сообщения
Вы не можете редактировать свои сообщения
Вы не можете удалять свои сообщения
Вы не можете голосовать в опросах
Вы не можете прикреплять файлы к сообщениям
Вы не можете скачивать файлы
Наши партнеры: интернет магазин Ивановского трикотажа textilla.ru