Ивановский Торрент трекер
Яндекс.Погода
 

[Цитировать]
HUNTER

The Fanthom Change
Тематика: Карточные фокусы
Тип раздаваемого материала: Видеоурок
Продолжительность: 00:47:00
Год выпуска: 2013
Язык: Английский
Перевод: Отсутствует
Описание: Красивая карточная сменка
Превью https://www.youtube.com/watch?v=aJ8cjhhfVys
Качество: HDRip
Формат: WMV
Видео кодек: WMVx
Аудио кодек: WMA
Видео: VC-1,3:2,1280 kbps,59 fps
Аудио: WMA,48 kbps;44,1 kHz,2 ch

Скриншоты

MediaInfo

Формат : Windows Media
Размер файла : 444 Мбайт
Продолжительность : 47 м.
Режим общего битрейта : Постоянный
Общий поток : 1299 Кбит/сек
Максимальный общий битрейт : 1395 Кбит/сек
Дата кодирования : UTC 2013-12-07 08:58:10.822
Видео
Идентификатор : 1
Формат : VC-1
Профиль формата : Main
Идентификатор кодека : WMV3
Идентификатор кодека/Информация : Windows Media Video 9
Идентификатор кодека/Подсказка : WMV3
Описание кодека : Windows Media Video 9
Продолжительность : 47 м.
Вид битрейта : Постоянный
Битрейт : 1280 Кбит/сек
Ширина : 480 пикселей
Высота : 320 пикселей
Соотношение сторон : 3:2
Частота кадров : 59,940 кадров/сек
Номинальная частота кадров : 422,529 кадра/сек
Цветовое пространство : YUV
Субдискретизация насыщенности : 4:2:0
Битовая глубина : 8 бит
Тип развёртки : Прогрессивная
Метод сжатия : С потерями
Бит/(Пиксели*Кадры) : 0.139
Размер потока : 437 Мбайт (99%)
Язык : English (US)
Аудио
Идентификатор : 2
Формат : WMA
Версия формата : Version 2
Идентификатор кодека : 161
Идентификатор кодека/Информация : Windows Media Audio
Описание кодека : Windows Media Audio 9.2 - 48 kbps, 44 kHz, stereo 1-pass CBR
Продолжительность : 47 м.
Вид битрейта : Постоянный
Битрейт : 48,0 Кбит/сек
Каналы : 2 канала
Частота : 44,1 КГц
Битовая глубина : 16 бит
Размер потока : 16,4 Мбайт (4%)
Язык : English (US)
C Наступающим всех!
НЕ ЗАБЫВАЕМ ГОВОРИТЬ СПАСИБО!


Показать сообщения:    

Текущее время: 11-Дек 17:05

Часовой пояс: UTC ± 0


Вы не можете начинать темы
Вы не можете отвечать на сообщения
Вы не можете редактировать свои сообщения
Вы не можете удалять свои сообщения
Вы не можете голосовать в опросах
Вы не можете прикреплять файлы к сообщениям
Вы не можете скачивать файлы

!ВНИМАНИЕ!
Сайт не предоставляет электронные версии произведений, а занимается лишь коллекционированием и каталогизацией ссылок, присылаемых и публикуемых на форуме нашими читателями. Если вы являетесь правообладателем какого-либо представленного материала и не желаете, чтобы ссылка на него находилась в нашем каталоге, свяжитесь с нами, и мы незамедлительно удалим ее. Файлы для обмена на трекере предоставлены пользователями сайта, и администрация не несет ответственности за их содержание. Просьба не заливать файлы, защищенные авторскими правами, а также файлы нелегального содержания!