Важное объявление!
У Нас Все раздачи мультитрекерные, при нуле пиров в релизах, можете смело вставать на закачку!
 
Автор Сообщение

HUNTER

Стаж:
4 года 4 месяца
Сообщений:
56808

Репутация: 101

[+] [-]
Вне форума [Профиль] [ЛС]

The Beatles - A Hard Day's Night - частичная колоризация
Страна: Великобритания
Жанр: Rock
Продолжительность: 1:28:55
Год выпуска: 1964 г.
Описание: 1964 год: начало битломании. Битлз дебютируют на американской сцене в шоу Эда Салливана. Режиссер Ричард Лестер делает первый фильм о группе, сняв его в жанре музыкальной комедии. "Вечер трудного дня" рассказывает фэнам группы об одном дне жизни Великой Четверки.
Перевод и озвучка Максима Жолобова
Треклист: ''I should Have Known Better'', ''If I Fell'', ''Can't Buy Me Love'', ''And I Love Her'', 'I'm Happy Just To Dance With You'', "You Can't Do That", "She Loves You", "A Hard Day's Night", "Tell Me Why".
Доп. информация: Фильм частично колоризован вручную. Для других фрагментов применено тонирование. Колоризованные клипы отмечены в треклисте красным цветом. Зеленым цветом - добавленный клип, который не вошел в фильм после съемок.

скрытый текст

AHDNmpeg480_23lang.mp4
General
Complete name : F:\COPY_HARDNIGHTS_colorization\AHDNmpeg480_23lang.mp4
Format : MPEG-4
Format profile : Base Media / Version 2
Codec ID : mp42
File size : 1.65 GiB
Duration : 1h 28mn
Overall bit rate : 2 650 Kbps
Encoded date : UTC 2014-08-30 05:11:55
Tagged date : UTC 2014-08-30 05:11:55
Video #1
ID : 1
Format : AVC
Format/Info : Advanced Video Codec
Format profile : High@L4.1
Format settings, CABAC : Yes
Format settings, ReFrames : 3 frames
Codec ID : avc1
Codec ID/Info : Advanced Video Coding
Duration : 1h 28mn
Bit rate mode : Variable
Bit rate : 2 393 Kbps
Maximum bit rate : 3 400 Kbps
Width : 720 pixels
Height : 480 pixels
Display aspect ratio : 16:9
Frame rate mode : Variable
Frame rate : 30.000 fps
Original frame rate : 29.970 fps
Minimum frame rate : 0.000 fps
Maximum frame rate : 29.970 fps
Standard : NTSC
Color space : YUV
Chroma subsampling : 4:2:0
Bit depth : 8 bits
Scan type : Progressive
Bits/(Pixel*Frame) : 0.231
Stream size : 1.49 GiB (90%)
Language : English
Encoded date : UTC 2014-08-30 05:11:55
Tagged date : UTC 2014-08-30 05:11:55
Color primaries : BT.601-6 525, BT.1358 525, BT.1700 NTSC, SMPTE 170M
Transfer characteristics : BT.601-6 525, BT.601-6 625, BT.1358 525, BT.1358 625, BT.1700 NTSC, SMPTE 170M
Matrix coefficients : BT.601-6 525, BT.1358 525, BT.1700 NTSC, SMPTE 170M
Audio #2
ID : 2
Format : AAC
Format/Info : Advanced Audio Codec
Format version : Version 4
Format profile : LC
Codec ID : 40
Duration : 1h 28mn
Bit rate mode : Variable
Bit rate : 256 Kbps
Maximum bit rate : 576 Kbps
Channel(s) : 2 channels
Channel positions : Front: L R
Sampling rate : 48.0 KHz
Compression mode : Lossy
Stream size : 163 MiB (10%)
Language : English
Encoded date : UTC 2014-08-30 05:11:55
Tagged date : UTC 2014-08-30 05:11:55
Cсылка http://rutracker.org/forum/viewtopic.php?t=3132276
Качество: DVDRip
Контейнер: MP4
Видео кодек: H.264
Аудио кодек: AAC
Видео: AVC 720X480 16:9 2393 Kbps 29.970 fps
Аудио: AAC 256 Kbps 48.0 KHz 2 channels

Скриншоты


_________________
Показать сообщения:    

Текущее время: Сегодня 09:50

Часовой пояс: GMT



Вы не можете начинать темы
Вы не можете отвечать на сообщения
Вы не можете редактировать свои сообщения
Вы не можете удалять свои сообщения
Вы не можете голосовать в опросах
Вы не можете прикреплять файлы к сообщениям
Вы не можете скачивать файлы