Важное объявление!
У Нас Все раздачи мультитрекерные, при нуле пиров в релизах, можете смело вставать на закачку!
 
Автор Сообщение

HUNTER

Стаж:
4 года 4 месяца
Сообщений:
56829

Репутация: 101

[+] [-]
Вне форума [Профиль] [ЛС]

The Beatles - A Hard Day's Night (colour)
Жанр: Rock
Продолжительность: 1:27:21
Год выпуска: 1964
Режиссер: Ричард Лестер
Перевод: Профессиональный (многоголосый, закадровый)
В ролях: Джон Леннон (John Lennon), Пол МакКартни (Paul McCartney), Джордж Хэррисон (George Harrison), Ринго Старр (Ringo Starr), Уилфред Брэмбелл (Wilfrid Brambell), Норман Россингтон (Norman Rossington)
Описание: 1964 год: начало битломании. Битлз дебютируют на американской сцене в шоу Эда Салливана. Режиссер Ричард Лестер делает первый фильм о группе, сняв его в жанре музыкальной комедии. "Вечер трудного дня" рассказывает фэнам группы об одном дне жизни Великой Четверки.
Треклист: ''I should Have Known Better'', ''If I Fell'', ''Can't Buy Me Love'', ''And I Love Her'', 'I'm Happy Just To Dance With You'', "She Loves You", "A Hard Day's Night", "Tell Me Why".
Доп. информация: Фильм частично колоризован вручную. Для других фрагментов применено тонирование. Колоризованные клипы отмечены в треклисте красным цветом.
Качество: BDRip
Контейнер: M2TS
Видео кодек: H.264
Аудио кодек: AC3
Видео: AVC 1920x1080 16:9 8100 Kbps 29.970 fps
Аудио: AC-3 448 Kbps 48.0 KHz 6 channels

Отчёт MediaInfo / BDInfo

HDNcolor1rus.m2ts General #0 ID : 0 (0x0) Complete name : HDNcolor1rus.m2ts Format : BDAV Format/Info : Advanced Video Codec File size : 5.44 GiB Duration : 1h 27mn Overall bit rate : 8 910 Kbps Maximum Overall bit rate : 48.0 Mbps Video #4113 ID : 4113 (0x1011) Menu ID : 1 (0x1) Format : AVC Format/Info : Advanced Video Codec Format profile : High@L4.0 Format settings, CABAC : Yes Format settings, ReFrames : 2 frames Codec ID : 27 Duration : 1h 27mn Bit rate mode : Variable Bit rate : 8 100 Kbps Maximum bit rate : 20.0 Mbps Width : 1 920 pixels Height : 1 080 pixels Display aspect ratio : 16:9 Frame rate : 29.970 fps Standard : NTSC Color space : YUV Chroma subsampling : 4:2:0 Bit depth : 8 bits Scan type : Interlaced Scan order : Top Field First Bits/(Pixel*Frame) : 0.130 Stream size : 4.94 GiB (91%) Color primaries : BT.709-5, BT.1361, IEC 61966-2-4, SMPTE RP177 Transfer characteristics : BT.709-5, BT.1361 Matrix coefficients : BT.709-5, BT.1361, IEC 61966-2-4 709, SMPTE RP177 Audio #4352 ID : 4352 (0x1100) Menu ID : 1 (0x1) Format : AC-3 Format/Info : Audio Coding 3 Mode extension : CM (complete main) Codec ID : 129 Duration : 1h 27mn Bit rate mode : Constant Bit rate : 448 Kbps Channel(s) : 6 channels Channel positions : Front: L C R, Side: L R, LFE Sampling rate : 48.0 KHz Bit depth : 16 bits Compression mode : Lossy Stream size : 280 MiB (5%)

Скриншоты


_________________
Показать сообщения:    

Текущее время: Сегодня 11:30

Часовой пояс: GMT



Вы не можете начинать темы
Вы не можете отвечать на сообщения
Вы не можете редактировать свои сообщения
Вы не можете удалять свои сообщения
Вы не можете голосовать в опросах
Вы не можете прикреплять файлы к сообщениям
Вы не можете скачивать файлы