Важное объявление!
У Нас Все раздачи мультитрекерные, при нуле пиров в релизах, можете смело вставать на закачку!
 
Автор Сообщение

PIONER

Стаж:
5 лет 9 месяцев
Сообщений:
53

Репутация: -21

[+] [-]
Вне форума [Профиль] [ЛС]

The Australian Pink Floyd Show - Live at Hammersmith Apollo (2011)
Жанр: Rock
Продолжительность: 02:30:00
Год выпуска: 2012
Описание:

Track Listing
1. Shine On You Crazy Diamond 1-5
2. Welcome To The Machine
3. Coming Back To Life
4. Arnold Layne
5. Sorrow
6. Learning To Fly
7. Dogs
8. Speak To Me
9. Breathe
10. On The Run
11. Time
12. Breathe Reprise
13. The Great hGig In The Sky
14. What Do You Want From Me
15. Careful With That Axe Eugene
16. Money
17. The Happiest Days Of Our Lives
18. Another Brick In The Wall - Part 2
19. Wish You Were Here
22. Run Like Hell
20. One Of These Days
21. Comfortably Numb

Доп. информация: Очередное шоу знаменитой трибьют группы Pink Floyd из Австралии, концерт в Hammersmith Apollo (2011).
Всем приятного просмотра!
DVD уже вышел:http://www.amazon.com/The-Australian-Pink-Floyd-Sho...88763&sr=8-1, ждём релиза на форуме
Качество: BDRip 1080p
Контейнер: MKV
Видео кодек: MPEG-4 AVC
Аудио кодек: DTS
Видео: MPEG4, 1 920x1 080 pixels, (16:9), 25.000 fps
Аудио: DTS, 1 510 Kbps, 6 channels

Отчёт MediaInfo / BDInfo

Complete name : E:\BBC TV\The Australian Pink Floyd Show - Live at Hammersmith Apollo (2011).mkvFormat : MatroskaFormat version : Version 2File size : 12.0 GiBDuration : 2h 30mnOverall bit rate : 11.4 MbpsEncoded date : UTC 2012-05-01 12:23:01Writing application : mkvmerge v5.2.1 ('A Far Off Place') built on Jan 2 2012 23:21:10Writing library : libebml v1.2.3 + libmatroska v1.3.0
VideoID : 1Format : AVCFormat/Info : Advanced Video CodecFormat profile : High@L4.1Format settings, CABAC : YesFormat settings, ReFrames : 4 framesCodec ID : V_MPEG4/ISO/AVCDuration : 2h 30mnBit rate : 9 896 KbpsWidth : 1 920 pixelsHeight : 1 080 pixelsDisplay aspect ratio : 16:9Frame rate : 25.000 fpsColor space : YUVChroma subsampling : 4:2:0Bit depth : 8 bitsScan type : ProgressiveBits/(Pixel*Frame) : 0.191Stream size : 10.2 GiB (85%)Writing library : x264 core 124 r2197 69a0443Encoding settings : cabac=1 / ref=4 / deblock=1:0:0 / analyse=0x3:0x133 / me=umh / subme=7 / psy=1 / psy_rd=1.00:0.00 / mixed_ref=1 / me_range=16 / chroma_me=1 / trellis=1 / 8x8dct=1 / cqm=0 / deadzone=21,11 / fast_pskip=0 / chroma_qp_offset=-2 / threads=12 / sliced_threads=0 / nr=0 / decimate=1 / interlaced=0 / bluray_compat=0 / constrained_intra=0 / bframes=3 / b_pyramid=2 / b_adapt=1 / b_bias=0 / direct=1 / weightb=1 / open_gop=0 / weightp=1 / keyint=250 / keyint_min=25 / scenecut=40 / intra_refresh=0 / rc_lookahead=40 / rc=2pass / mbtree=1 / bitrate=9896 / ratetol=1.0 / qcomp=0.60 / qpmin=0 / qpmax=69 / qpstep=4 / cplxblur=20.0 / qblur=0.5 / ip_ratio=1.40 / aq=1:1.00Language : English
AudioID : 2Format : DTSFormat/Info : Digital Theater SystemsCodec ID : A_DTSDuration : 2h 30mnBit rate mode : ConstantBit rate : 1 510 KbpsChannel(s) : 6 channelsChannel positions : Front: L C R, Side: L R, LFESampling rate : 48.0 KHzBit depth : 24 bitsCompression mode : LossyStream size : 1.59 GiB (13%)

Скриншоты

-Источник:

_________________
Прошу отозваться людей, которые считают, что я их недолюбливаю. По возможности буду приходить и долюбливать.

PIONER

Стаж:
5 лет 9 месяцев
Сообщений:
53

Репутация: -21

[+] [-]
Вне форума [Профиль] [ЛС]

Концерт изумительный!

_________________
Прошу отозваться людей, которые считают, что я их недолюбливаю. По возможности буду приходить и долюбливать.
Показать сообщения:    

Текущее время: Сегодня 00:40

Часовой пояс: GMT



Вы не можете начинать темы
Вы не можете отвечать на сообщения
Вы не можете редактировать свои сообщения
Вы не можете удалять свои сообщения
Вы не можете голосовать в опросах
Вы не можете прикреплять файлы к сообщениям
Вы не можете скачивать файлы