Ивановский Торрент трекер
Яндекс.Погода
 

[Цитировать]
HUNTER

Тэд-путешественник и тайна царя Мидаса
Tadeo Jones 2: El secreto del Rey Mida
Tad the Lost Explorer and the Secret of King Midas

Страна: Испания
Жанр: Мультфильм, Комедия, Приключения, Семейный
Продолжительность: 01:24:59
Год выпуска: 2017
Перевод: Профессиональный (дублированный) Blu-Ray
Оригинальная аудиодорожка: Английский, Испанский
Субтитры: Русские, Английские, Испанские--Режиссёр: Давид Алонсо, Энрике Гато / David Alonso, Enrique Gato--Роли озвучивали: Оскар Барберан, Мишель Хеннер, Адриана Угарте, Луис Посада, Мигель Анхель Хеннер, Хосе Корбачо, Росер Баталья, Рафаэль Калво, Давид Брау, Франческ Бельда...--Описание: Тэд, не самый удачливый и ловкий исследователь и путешественник, и его странноватые друзья, в числе которых настоящая мумия и смышленый пес Джефф, отправляются на розыски злобного богача Джека Рэкхема, похитившего Сару. Любимая Тэда обнаружила, где спрятаны сокровища легендарного царя Мидаса, и злодей надеется их заполучить. Но Тэд и его команда должны разрушить планы беспринципного богача и освободить Сару!--Доп. информация: | IMDB | КиноПоиск | Сэмпл | --Качество: BDRip-AVC Исходник. Blu-Ray 1080p - Kinozal
Формат: MKV
Видео: 1120x476 (2.35:1), 2260 kbps, 23.976 fps, 0.177 bit/pixel
Аудио 1: AC3 Dolby Digital, 3/2 (L,C,R,l,r) + LFE ch, 48.0 KHz, 448 Kbps | Дубляж. Русский |
Аудио 2: AC3 Dolby Digital, 3/2 (L,C,R,l,r) + LFE ch, 48.0 KHz, 448 Kbps | Дубляж. Английский |
Аудио 3: AC3 Dolby Digital, 3/2 (L,C,R,l,r) + LFE ch, 48.0 KHz, 448 Kbps | Оригинал. Испанский |
Субтитры: Русские (Форсированные, Полные), Английские (Full, SDH), Испанские (Full)

Скриншоты

Подробные технические данные

x264

raw [info]: 1120x476p 1:1 @ 24000/1001 fps (cfr)
x264 [info]: using SAR=1/1
x264 [info]: using cpu capabilities: MMX2 SSE2Fast SSSE3 SSE4.2 AVX
x264 [info]: profile High, level 4.1
x264 [info]: frame I:1090 Avg QP:14.30 size: 81048
x264 [info]: frame P:31372 Avg QP:16.64 size: 23201
x264 [info]: frame B:89790 Avg QP:19.76 size: 6946
x264 [info]: consecutive B-frames: 3.5% 4.2% 12.7% 36.5% 18.6% 18.4% 3.1% 1.5% 0.3% 0.3% 0.2% 0.1% 0.1% 0.1% 0.3%
x264 [info]: mb I I16..4: 9.2% 60.4% 30.4%
x264 [info]: mb P I16..4: 2.1% 13.6% 3.6% P16..4: 29.6% 19.1% 14.3% 0.0% 0.0% skip:17.6%
x264 [info]: mb B I16..4: 0.3% 1.4% 0.4% B16..8: 29.9% 10.0% 3.2% direct: 4.3% skip:50.4% L0:41.1% L1:42.2% BI:16.6%
x264 [info]: 8x8 transform intra:68.4% inter:50.5%
x264 [info]: coded y,uvDC,uvAC intra: 78.0% 81.1% 65.2% inter: 15.6% 14.5% 5.6%
x264 [info]: i16 v,h,dc,p: 37% 17% 10% 36%
x264 [info]: i8 v,h,dc,ddl,ddr,vr,hd,vl,hu: 12% 15% 14% 7% 9% 9% 11% 9% 13%
x264 [info]: i4 v,h,dc,ddl,ddr,vr,hd,vl,hu: 13% 11% 7% 8% 13% 12% 13% 10% 12%
x264 [info]: i8c dc,h,v,p: 42% 26% 17% 15%
x264 [info]: Weighted P-Frames: Y:3.7% UV:2.8%
x264 [info]: ref P L0: 53.2% 10.3% 13.3% 5.3% 4.2% 3.5% 3.1% 2.1% 1.9% 1.6% 1.5% 0.1% 0.0%
x264 [info]: ref B L0: 78.6% 8.7% 4.3% 2.1% 1.8% 1.5% 1.3% 0.9% 0.6% 0.3%
x264 [info]: ref B L1: 95.6% 4.4%
x264 [info]: kb/s:2259.11
General
Unique ID : 229663343548508643139148655531709943367 (0xACC78D116777D0E5B366CBF30CA3CE47)
Complete name : Tadeo Jones 2. El secreto del Rey Midas (2017).mkv
Format : Matroska
Format version : Version 4 / Version 2
File size : 2.14 GiB
Duration : 1 h 24 min
Overall bit rate : 3 606 kb/s
Movie name : Tadeo Jones 2: El secreto del Rey Midas / Тэд-путешественник и тайна царя Мидаса (2017)
Encoded date : UTC 2018-04-20 23:46:40
Writing application : mkvmerge v8.1.0 ('Psychedelic Postcard') 64bit
Writing library : libebml v1.3.1 + libmatroska v1.4.2
Cover : Yes
Attachments : cover.jpg
Video
ID : 1
Format : AVC
Format/Info : Advanced Video Codec
Format profile : High@L4.1
Format settings : CABAC / 11 Ref Frames
Format settings, CABAC : Yes
Format settings, ReFrames : 11 frames
Codec ID : V_MPEG4/ISO/AVC
Duration : 1 h 24 min
Bit rate : 2 259 kb/s
Width : 1 120 pixels
Height : 476 pixels
Display aspect ratio : 2.35:1
Frame rate mode : Constant
Frame rate : 23.976 (24000/1001) FPS
Color space : YUV
Chroma subsampling : 4:2:0
Bit depth : 8 bits
Scan type : Progressive
Bits/(Pixel*Frame) : 0.177
Stream size : 1.34 GiB (63%)
Title : Tadeo Jones 2: El secreto del Rey Midas (2017) By optik.1557
Writing library : x264 core 152 r2851kMod ba24899
Encoding settings : cabac=1 / ref=11 / deblock=1:-2:-1 / analyse=0x3:0x113 / me=umh / subme=10 / psy=1 / fade_compensate=0.00 / psy_rd=1.03:0.19 / mixed_ref=1 / me_range=32 / chroma_me=1 / trellis=2 / 8x8dct=1 / cqm=0 / deadzone=21,11 / fast_pskip=0 / chroma_qp_offset=-3 / threads=6 / lookahead_threads=1 / sliced_threads=0 / nr=0 / decimate=1 / interlaced=0 / bluray_compat=0 / constrained_intra=0 / bframes=14 / b_pyramid=2 / b_adapt=2 / b_bias=0 / direct=1 / weightb=1 / open_gop=0 / weightp=2 / keyint=250 / keyint_min=23 / scenecut=40 / intra_refresh=0 / rc_lookahead=60 / rc=crf / mbtree=0 / crf=17.7700 / qcomp=0.60 / qpmin=0 / qpmax=69 / qpstep=4 / vbv_maxrate=50000 / vbv_bufsize=62500 / crf_max=0.0 / nal_hrd=none / filler=0 / ip_ratio=1.40 / pb_ratio=1.30 / aq=3:0.85
Language : Spanish
Default : Yes
Forced : No
Audio #1
ID : 2
Format : AC-3
Format/Info : Audio Coding 3
Codec ID : A_AC3
Duration : 1 h 24 min
Bit rate mode : Constant
Bit rate : 448 kb/s
Channel(s) : 6 channels
Channel positions : Front: L C R, Side: L R, LFE
Sampling rate : 48.0 kHz
Frame rate : 31.250 FPS (1536 SPF)
Bit depth : 16 bits
Compression mode : Lossy
Stream size : 272 MiB (12%)
Title : Дубляж (Blu-ray)
Language : Russian
Service kind : Complete Main
Default : Yes
Forced : No
Audio #2
ID : 3
Format : AC-3
Format/Info : Audio Coding 3
Codec ID : A_AC3
Duration : 1 h 24 min
Bit rate mode : Constant
Bit rate : 448 kb/s
Channel(s) : 6 channels
Channel positions : Front: L C R, Side: L R, LFE
Sampling rate : 48.0 kHz
Frame rate : 31.250 FPS (1536 SPF)
Bit depth : 16 bits
Compression mode : Lossy
Stream size : 272 MiB (12%)
Title : Dubbing (Blu-Ray)
Language : English
Service kind : Complete Main
Default : No
Forced : No
Audio #3
ID : 4
Format : AC-3
Format/Info : Audio Coding 3
Codec ID : A_AC3
Duration : 1 h 24 min
Bit rate mode : Constant
Bit rate : 448 kb/s
Channel(s) : 6 channels
Channel positions : Front: L C R, Side: L R, LFE
Sampling rate : 48.0 kHz
Frame rate : 31.250 FPS (1536 SPF)
Bit depth : 16 bits
Compression mode : Lossy
Stream size : 272 MiB (12%)
Title : Original
Language : Spanish
Service kind : Complete Main
Default : No
Forced : No
Text #1
ID : 5
Format : UTF-8
Codec ID : S_TEXT/UTF8
Codec ID/Info : UTF-8 Plain Text
Duration : 1 h 13 min
Bit rate : 1 b/s
Count of elements : 18
Stream size : 575 Bytes (0%)
Title : Форсированные
Language : Russian
Default : Yes
Forced : No
Text #2
ID : 6
Format : UTF-8
Codec ID : S_TEXT/UTF8
Codec ID/Info : UTF-8 Plain Text
Duration : 1 h 24 min
Bit rate : 75 b/s
Count of elements : 1000
Stream size : 47.0 KiB (0%)
Title : Полные
Language : Russian
Default : No
Forced : No
Text #3
ID : 7
Format : UTF-8
Codec ID : S_TEXT/UTF8
Codec ID/Info : UTF-8 Plain Text
Duration : 1 h 16 min
Bit rate : 51 b/s
Count of elements : 982
Stream size : 28.8 KiB (0%)
Title : Full
Language : English
Default : No
Forced : No
Text #4
ID : 8
Format : UTF-8
Codec ID : S_TEXT/UTF8
Codec ID/Info : UTF-8 Plain Text
Duration : 1 h 17 min
Bit rate : 60 b/s
Count of elements : 1236
Stream size : 34.5 KiB (0%)
Title : SDH
Language : English
Default : No
Forced : No
Text #5
ID : 9
Format : UTF-8
Codec ID : S_TEXT/UTF8
Codec ID/Info : UTF-8 Plain Text
Duration : 1 h 17 min
Bit rate : 52 b/s
Count of elements : 965
Stream size : 29.8 KiB (0%)
Title : Full
Language : Spanish
Default : No
Forced : No
Menu
00:00:00.000 : en:Chapter 1
00:04:23.304 : en:Chapter 2
00:10:52.485 : en:Chapter 3
00:17:06.984 : en:Chapter 4
00:22:32.351 : en:Chapter 5
00:27:33.151 : en:Chapter 6
00:33:01.396 : en:Chapter 7
00:36:20.761 : en:Chapter 8
00:43:11.380 : en:Chapter 9
00:50:25.772 : en:Chapter 10
00:55:26.906 : en:Chapter 11
00:59:23.226 : en:Chapter 12
01:05:02.857 : en:Chapter 13
01:14:30.716 : en:Chapter 14
01:17:35.275 : en:Chapter 15


Показать сообщения:    

Текущее время: 19-Янв 10:28

Часовой пояс: UTC ± 0


Вы не можете начинать темы
Вы не можете отвечать на сообщения
Вы не можете редактировать свои сообщения
Вы не можете удалять свои сообщения
Вы не можете голосовать в опросах
Вы не можете прикреплять файлы к сообщениям
Вы не можете скачивать файлы

!ВНИМАНИЕ!
Сайт не предоставляет электронные версии произведений, а занимается лишь коллекционированием и каталогизацией ссылок, присылаемых и публикуемых на форуме нашими читателями. Если вы являетесь правообладателем какого-либо представленного материала и не желаете, чтобы ссылка на него находилась в нашем каталоге, свяжитесь с нами, и мы незамедлительно удалим ее. Файлы для обмена на трекере предоставлены пользователями сайта, и администрация не несет ответственности за их содержание. Просьба не заливать файлы, защищенные авторскими правами, а также файлы нелегального содержания!