Важное объявление!
У Нас Все раздачи мультитрекерные, при нуле пиров в релизах, можете смело вставать на закачку!
 
Автор Сообщение

HUNTER

Стаж:
4 года 4 месяца
Сообщений:
56829

Репутация: 101

[+] [-]
Вне форума [Профиль] [ЛС]

Technohead / I Wanna Be A Hippy (Remixes)
Жанр: Techno, Happy Hardcore, Gabber
Носитель: CDM
Год издания: 1995
Издатель (лейбл): Mokum Records
Номер по каталогу: DB 1789 0
Аудиокодек: FLAC (*.flac)
Тип рипа: tracks+.cue
Битрейт аудио: lossless
Продолжительность: 24:21
Источник (релизер): собственный рип
Наличие сканов в содержимом раздачи: да
Треклист:
01. Technohead - I Wanna Be A Hippy (Dreadlock Holliday) (Ilsa Gold Mix) [05:18]
02. Technohead - I Wanna Be A Hippy (Get High) (G.T.O. Mix) [05:21]
03. Technohead - I Wanna Be A Hippy (Get Stoned) (Carl Cox Mix) [07:10]
04. Technohead - I Wanna Be A Hippy (I Wanna) (Daz Saund & Trevor Rockcliffe Mix) [06:31]

Лог создания рипа

Exact Audio Copy V1.0 beta 3 from 29. August 2011
EAC extraction logfile from 27. October 2014, 12:49
Technohead / I Wanna Be A Hippy (Remixes)
Used drive : ASUS DRW-24B5ST Adapter: 2 ID: 0
Read mode : SecureUtilize accurate stream : YesDefeat audio cache : YesMake use of C2 pointers : No
Read offset correction : 6Overread into Lead-In and Lead-Out : NoFill up missing offset samples with silence : YesDelete leading and trailing silent blocks : NoNull samples used in CRC calculations : YesUsed interface : Native Win32 interface for Win NT & 2000Gap handling : Appended to previous track
Used output format : User Defined EncoderSelected bitrate : 128 kBit/sQuality : HighAdd ID3 tag : NoCommand line compressor : C:\Program Files (x86)\Exact Audio Copy\Flac\flac.exeAdditional command line options : -8 -V -T "ARTIST=%artist%" -T "TITLE=%title%" -T "ALBUM=%albumtitle%" -T "DATE=%year%" -T "TRACKNUMBER=%tracknr%" -T "GENRE=%genre%" -T "COMMENT=ripped by Andy aka yetiisyou" %source%
TOC of the extracted CD
Track | Start | Length | Start sector | End sector --------------------------------------------------------- 1 | 0:00.32 | 5:18.15 | 32 | 23896 2 | 5:18.47 | 5:21.15 | 23897 | 47986 3 | 10:39.62 | 7:10.20 | 47987 | 80256 4 | 17:50.07 | 6:31.38 | 80257 | 109619
Track 1
Filename C:\!Ripped by Andy aka yetiisyou\Technohead - I Wanna Be A Hippy (Remixes) [DB 1789 0] [1995]\01. I Wanna Be A Hippy (Dreadlock Holliday) (Ilsa Gold Mix).wav
Pre-gap length 0:00:02.32
Peak level 98.5 % Extraction speed 5.4 X Track quality 100.0 % Test CRC F09EBACB Copy CRC F09EBACB Accurately ripped (confidence 2) [5E269CAE] (AR v1) Copy OK
Track 2
Filename C:\!Ripped by Andy aka yetiisyou\Technohead - I Wanna Be A Hippy (Remixes) [DB 1789 0] [1995]\02. I Wanna Be A Hippy (Get High) (G.T.O. Mix).wav
Pre-gap length 0:00:01.67
Peak level 98.3 % Extraction speed 6.1 X Track quality 100.0 % Test CRC C38BEAB5 Copy CRC C38BEAB5 Accurately ripped (confidence 2) [17B9A0E2] (AR v1) Copy OK
Track 3
Filename C:\!Ripped by Andy aka yetiisyou\Technohead - I Wanna Be A Hippy (Remixes) [DB 1789 0] [1995]\03. I Wanna Be A Hippy (Get Stoned) (Carl Cox Mix).wav
Pre-gap length 0:00:02.05
Peak level 98.2 % Extraction speed 6.3 X Track quality 99.9 % Test CRC AF375B4C Copy CRC AF375B4C Accurately ripped (confidence 2) [479D4660] (AR v1) Copy OK
Track 4
Filename C:\!Ripped by Andy aka yetiisyou\Technohead - I Wanna Be A Hippy (Remixes) [DB 1789 0] [1995]\04. I Wanna Be A Hippy (I Wanna) (Daz Saund & Trevor Rockcliffe Mix).wav
Pre-gap length 0:00:01.50
Peak level 99.0 % Extraction speed 7.9 X Track quality 100.0 % Test CRC 4AF238B1 Copy CRC 4AF238B1 Accurately ripped (confidence 2) [B9C5F41B] (AR v1) Copy OK
All tracks accurately ripped
No errors occurred
End of status report
==== Log checksum 60EB641A7D1F148D19D9CC8AE8F67B002A21F76F2A82E0C3FDAB96085B8EE70D ====

Содержание индексной карты (.CUE)

REM GENRE TechnoREM DATE 1995REM DISCID 1C05B504REM COMMENT "ExactAudioCopy v1.0b3"CATALOG 0000000000000PERFORMER "Technohead"TITLE "I Wanna Be A Hippy (Remixes)"FILE "01. I Wanna Be A Hippy (Dreadlock Holliday) (Ilsa Gold Mix).wav" WAVE TRACK 01 AUDIO TITLE "I Wanna Be A Hippy (Dreadlock Holliday) (Ilsa Gold Mix)" PERFORMER "Technohead" ISRC NLA329511560 PREGAP 00:00:32 INDEX 01 00:00:00 TRACK 02 AUDIO TITLE "I Wanna Be A Hippy (Get High) (G.T.O. Mix)" PERFORMER "Technohead" ISRC NLA329511570 INDEX 00 05:16:23FILE "02. I Wanna Be A Hippy (Get High) (G.T.O. Mix).wav" WAVE INDEX 01 00:00:00 TRACK 03 AUDIO TITLE "I Wanna Be A Hippy (Get Stoned) (Carl Cox Mix)" PERFORMER "Technohead" ISRC NLA329511580 INDEX 00 05:19:10FILE "03. I Wanna Be A Hippy (Get Stoned) (Carl Cox Mix).wav" WAVE INDEX 01 00:00:00 TRACK 04 AUDIO TITLE "I Wanna Be A Hippy (I Wanna) (Daz Saund & Trevor Rockcliffe Mix)" PERFORMER "Technohead" ISRC NLA329511590 INDEX 00 07:08:45FILE "04. I Wanna Be A Hippy (I Wanna) (Daz Saund & Trevor Rockcliffe Mix).wav" WAVE INDEX 01 00:00:00

Лог проверки качества

-----------------------
DON'T MODIFY THIS FILE
-----------------------
PERFORMER: auCDtect Task Manager, ver. 1.6.0 RC1 build 1.6.0.1Copyright (c) 2008-2010 y-soft. All rights reservedhttp://y-soft.org
ANALYZER: auCDtect: CD records authenticity detector, version 0.8.2Copyright (c) 2004 Oleg Berngardt. All rights reserved.Copyright (c) 2004 Alexander Djourik. All rights reserved.
FILE: 04. I Wanna Be A Hippy (I Wanna) (Daz Saund & Trevor Rockcliffe Mix).flac Size: 43668091 Hash: 3E40B48FE5F562B46E84CE31FE34247B Accuracy: -m0 Conclusion: CDDA 100% Signature: 7ED1D120084F0E349CDC1DC108CF0163738A1F3DFILE: 03. I Wanna Be A Hippy (Get Stoned) (Carl Cox Mix).flac Size: 52283576 Hash: 556C62B35340907EF1AF1E14AF8141AF Accuracy: -m0 Conclusion: CDDA 100% Signature: 6B1A02FBF2A131288847B2544D9D963685901B49FILE: 02. I Wanna Be A Hippy (Get High) (G.T.O. Mix).flac Size: 36718378 Hash: 200DF0427F39DD574C0AE0A751EE3C3D Accuracy: -m0 Conclusion: CDDA 100% Signature: 288A8AF9CE2140F899AEE3C925F706FF6B0DB998FILE: 01. I Wanna Be A Hippy (Dreadlock Holliday) (Ilsa Gold Mix).flac Size: 36897006 Hash: 8349150D195EA7B37A31E0461D24D103 Accuracy: -m0 Conclusion: CDDA 100% Signature: 472FF86D3D79724E5F9666EDD5D5C9FAE71FCAA5

_________________
Показать сообщения:    

Текущее время: Сегодня 12:10

Часовой пояс: GMT



Вы не можете начинать темы
Вы не можете отвечать на сообщения
Вы не можете редактировать свои сообщения
Вы не можете удалять свои сообщения
Вы не можете голосовать в опросах
Вы не можете прикреплять файлы к сообщениям
Вы не можете скачивать файлы