Важное объявление!
У Нас Все раздачи мультитрекерные, при нуле пиров в релизах, можете смело вставать на закачку!
Статистика раздачи
Размер:     |    Зарегистрирован:     |    Скачан:     |   
Нет
 
     
 
 
Автор Сообщение

HUNTER

Стаж:
5 лет
Сообщений:
68033

Репутация: 101

[+] [-]
Вне форума [Профиль] [ЛС]

TCR International Series 2015 / Salzburgring / Review


Вид спорта: Автогонки
Дата: 30-31 мая, 2015
Место проведения: Salzburgring, Austria
Трансляция: Спорт 1
Язык комментария: Русский (Оксана Косаченко)
Описание: Обзор Квалификации 1-2, Гонки 1-2
Автор релиза: mex_mangust

Качество: HDWeb-Rip 1080i (OTT-сервис)
Формат: MKV
Видео: H.264 / 1920x1080 / 25 fps / 10,8 mbps
Аудио: MP2 / 48 mhz / Stereo / 192 kbps

Media Info

General
Unique ID : 206331531324771692322242699046647113996 (0x9B3A01E93954DDC1AE4774C7D602290C)
Complete name : G:\torrents\RUTRACKER.ORG-TCR-20150531-Salzburgring-Review-RU-1080i-mex.mkv
Format : Matroska
Format version : Version 4 / Version 2
File size : 2.02 GiB
Duration : 25mn 50s
Overall bit rate : 11.2 Mbps
Encoded date : UTC 2015-06-03 18:14:56
Writing application : mkvmerge v7.9.0 ('Birds') 64bit
Writing library : libebml v1.3.1 + libmatroska v1.4.2
DURATION : 00:25:50.232000000
NUMBER_OF_FRAMES : 64593
NUMBER_OF_BYTES : 37205568
_STATISTICS_WRITING_APP : mkvmerge v7.9.0 ('Birds') 64bit
_STATISTICS_WRITING_DATE_UTC : 2015-06-03 18:14:56
_STATISTICS_TAGS : BPS DURATION NUMBER_OF_FRAMES NUMBER_OF_BYTES
Video
ID : 1
Format : AVC
Format/Info : Advanced Video Codec
Format profile : Main@L4
Format settings, CABAC : Yes
Format settings, ReFrames : 4 frames
Codec ID : V_MPEG4/ISO/AVC
Duration : 25mn 50s
Bit rate : 10.8 Mbps
Width : 1 920 pixels
Height : 1 080 pixels
Display aspect ratio : 16:9
Frame rate mode : Constant
Frame rate : 25.000 fps
Standard : Component
Color space : YUV
Chroma subsampling : 4:2:0
Bit depth : 8 bits
Scan type : Interlaced
Scan order : Top Field First
Bits/(Pixel*Frame) : 0.208
Stream size : 1.95 GiB (96%)
Title : mm
Default : Yes
Forced : No
Color range : Limited
Color primaries : BT.709
Transfer characteristics : BT.709
Matrix coefficients : BT.709
Audio
ID : 2
Format : MPEG Audio
Format version : Version 1
Format profile : Layer 2
Codec ID : A_MPEG/L2
Codec ID/Hint : MP2
Duration : 25mn 50s
Bit rate mode : Constant
Bit rate : 192 Kbps
Channel(s) : 2 channels
Sampling rate : 48.0 KHz
Compression mode : Lossy
Delay relative to video : 139ms
Stream size : 35.5 MiB (2%)
Title : Sport 1
Language : Russian
Default : Yes
Forced : No

Продолжительность

00:25:50

Скриншоты


_________________
Показать сообщения:    

Текущее время: Сегодня 22:34

Часовой пояс: GMT



Вы не можете начинать темы
Вы не можете отвечать на сообщения
Вы не можете редактировать свои сообщения
Вы не можете удалять свои сообщения
Вы не можете голосовать в опросах
Вы не можете прикреплять файлы к сообщениям
Вы не можете скачивать файлы