Важное объявление!
У Нас Все раздачи мультитрекерные, при нуле пиров в релизах, можете смело вставать на закачку!
 
Автор Сообщение

HUNTER

Стаж:
4 года 6 месяцев
Сообщений:
61017

Репутация: 101

[+] [-]
Вне форума [Профиль] [ЛС]

TCR International Series 2015 / Stage 05 / Autodromo di Monza / Review

Вид спорта: Автогонки
Дата: 23-24 мая, 2015
Место проведения: Autodromo Di Monza, Italy
Трансляция: Спорт 1
Язык комментария: Русский (Оксана Косаченко)
Описание: Обзор Квалификации 1-2, Гонки 1-2
Автор релиза: mex_mangust

Качество: WEB-DL 1080i
Формат: MKV
Видео: H.264 / 1920x1080 / 25 fps / 10,8 mbps
Аудио: MP2 / 48 mhz / Stereo / 192 kbps

Media Info

General
Unique ID : 200332470176824547872780274076447798029 (0x96B6A15C4D36E0BEA7AFA127869DF30D)
Complete name : G:\torrents\RUTRACKER.ORG-TCR-20150524-St5-Autodromo-di-Monza-Review-RU-1080i-mex.mkv
Format : Matroska
Format version : Version 4 / Version 2
File size : 1.92 GiB
Duration : 25mn 20s
Overall bit rate : 10.8 Mbps
Encoded date : UTC 2015-05-29 15:12:56
Writing application : mkvmerge v7.9.0 ('Birds') 64bit
Writing library : libebml v1.3.1 + libmatroska v1.4.2
_STATISTICS_WRITING_APP : mkvmerge v7.9.0 ('Birds') 64bit
_STATISTICS_WRITING_DATE_UTC : 2015-05-29 15:12:56
_STATISTICS_TAGS : BPS DURATION NUMBER_OF_FRAMES NUMBER_OF_BYTES
DURATION : 00:25:20.627000000
NUMBER_OF_FRAMES : 63354
NUMBER_OF_BYTES : 36491904
Video
ID : 1
Format : AVC
Format/Info : Advanced Video Codec
Format profile : Main@L4
Format settings, CABAC : Yes
Format settings, ReFrames : 4 frames
Codec ID : V_MPEG4/ISO/AVC
Duration : 25mn 20s
Bit rate : 10.4 Mbps
Width : 1 920 pixels
Height : 1 080 pixels
Display aspect ratio : 16:9
Frame rate mode : Constant
Frame rate : 25.000 fps
Standard : Component
Color space : YUV
Chroma subsampling : 4:2:0
Bit depth : 8 bits
Scan type : Interlaced
Scan order : Top Field First
Bits/(Pixel*Frame) : 0.201
Stream size : 1.85 GiB (96%)
Title : mm
Default : Yes
Forced : No
Color range : Limited
Color primaries : BT.709
Transfer characteristics : BT.709
Matrix coefficients : BT.709
Audio
ID : 2
Format : MPEG Audio
Format version : Version 1
Format profile : Layer 2
Codec ID : A_MPEG/L2
Codec ID/Hint : MP2
Duration : 25mn 20s
Bit rate mode : Constant
Bit rate : 192 Kbps
Channel(s) : 2 channels
Sampling rate : 48.0 KHz
Compression mode : Lossy
Delay relative to video : 123ms
Stream size : 34.8 MiB (2%)
Title : Sport 1
Language : Russian
Default : Yes
Forced : No

Продолжительность

00:25:21

Скриншоты


_________________
Показать сообщения:    

Текущее время: Сегодня 15:39

Часовой пояс: GMT



Вы не можете начинать темы
Вы не можете отвечать на сообщения
Вы не можете редактировать свои сообщения
Вы не можете удалять свои сообщения
Вы не можете голосовать в опросах
Вы не можете прикреплять файлы к сообщениям
Вы не можете скачивать файлы
Наши партнеры: интернет магазин Ивановского трикотажа textilla.ru