Ивановский Торрент трекер
Яндекс.Погода
DL-List and Torrent activity
Size:  3.57 GB   |    Registered:  4 years 8 months   |    Completed:  1 time
DL-List: None

Seeder not seen: 3 years 8 months

 
     
 
 
 

[Quote]
HUNTER

Тайна тёмной комнаты
Страна: Россия
Студия: Мосфильм, Вертикаль
Жанр: приключения, детский
Год выпуска: 2014
Продолжительность: 01:16:22
Cубтитры: нет
Оригинальная аудиодорожка: русский
Режиссер: Ольга Беляева
В ролях:
Сергей Никоненко
Виктор Сухоруков
Галина Польских
Ирина Скобцева
Константин Крюков
Иван Агапов
Екатерина Воронина
Нина Маслова
Егор Губарев
Андрей Попович
Описание: Два школьника решают исследовать таинственное окно, появляющееся на стене их дома в полночь во время полнолуния. Проникнув туда и оказавшись в тёмной
комнате, они и не подозревают, какие приключения ждут их впереди…
Доп. информация: Запись со спутника Eutelsat 36A/Eutelsat 36B, телеканал "Наше HD".
Сэмпл: http://multi-up.com/1041220
Релиз:
Тип релиза: HDTV 1080i
Контейнер: TS
Видео: AVC, 1920x1080i, 25.000 fps, 5903 kbps
Аудио: Русский (Dolby AC3 5.1, 48 kHz, 448 kbps)

MediaInfo

Общее
Идентификатор : 1 (0x1)
Полное имя : E:\Тайна_темной_комнаты_HDTV_1080i_2014.ts
Формат : MPEG-TS
Размер файла : 3,57 Гбайт
Продолжительность : 1 ч. 16 м.
Режим общего битрейта : Переменный
Общий поток : 6686 Кбит/сек
Максимальный общий битрейт : 35,5 Мбит/сек
Видео
Идентификатор : 4113 (0x1011)
Идентификатор меню : 1 (0x1)
Формат : AVC
Формат/Информация : Advanced Video Codec
Профиль формата : Main@L4.0
Параметр CABAC формата : Да
Параметр ReFrames формата : 3 кадра
Идентификатор кодека : 27
Продолжительность : 1 ч. 16 м.
Вид битрейта : Переменный
Битрейт : 5903 Кбит/сек
Максимальный битрейт : 40,0 Мбит/сек
Ширина : 1920 пикселей
Высота : 1080 пикселей
Соотношение сторон : 16:9
Частота кадров : 25,000 кадров/сек
Стандарт вещания : Component
Цветовое пространство : YUV
Субдискретизация насыщенности : 4:2:0
Битовая глубина : 8 бит
Тип развёртки : Чересстрочная
Порядок развёртки : Верхнее поле первое
Бит/(Пиксели*Кадры) : 0.114
Размер потока : 3,15 Гбайт (88%)
Основные цвета : BT.709
Характеристики трансфера : BT.709
Коэффициенты матрицы : BT.709
colour_range : Limited
Аудио
Идентификатор : 4352 (0x1100)
Идентификатор меню : 1 (0x1)
Формат : AC-3
Формат/Информация : Audio Coding 3
Расширение режима : CM (complete main)
Параметр Endianness формата : Big
Идентификатор кодека : 129
Продолжительность : 1 ч. 16 м.
Вид битрейта : Постоянный
Битрейт : 448 Кбит/сек
Каналы : 6 каналов
Расположение каналов : Front: L C R, Side: L R, LFE
Частота : 48,0 КГц
Битовая глубина : 16 бит
Метод сжатия : С потерями
Задержка видео : 16 мс.
Размер потока : 245 Мбайт (7%)
Язык : Russian

Скриншоты

[iv-torrents.ru].t42638.torrent
Torrent: Registered [ 2015-04-01 00:16 ] · 126C8B16DC9CED16380D3B7C864BC99DD4CA272A

Download .torrent

Download

18 KB

Status: checked
Completed: 1 times
Size: 3.57 GB
terms.php
Похожие темы


Quick Reply

Name:

               
       
     
Heads necessary to send messages to enable JavaScript
Display posts:    

Current time is: 14-Dec 08:46

All times are UTC ± 0


You can post new topics in this forum
You can reply to topics in this forum
You cannot edit your posts in this forum
You cannot delete your posts in this forum
You cannot vote in polls in this forum
You cannot attach files in this forum
You can download files in this forum

!ATTENTION!
The site does not give electronic versions of products, and is engaged only in a collecting and cataloguing of the references sent and published at a forum by our readers. If you are the legal owner of any submitted material and do not wish that the reference to it was in our catalogue, contact us and we shall immediately remove her. Files for an exchange on tracker are given by users of a site, and the administration does not bear the responsibility for their maintenance. The request to not fill in the files protected by copyrights, and also files of the illegal maintenance!