Ивановский Торрент трекер
Яндекс.Погода
 

[Цитировать]
HUNTER

TУ - 124. Посадка на Неву
Год выпуска: 2015
Страна: Россия
Жанр: Документальный
Продолжительность: 00:52:06
Перевод: Не требуется
Режиссер: Роман Новолокин
Описание: В нашем фильме мы расскажем, как пассажирский самолет, терпевший бедствие, сел на воду в самом центре Санкт-Петербурга! Первое в мировой практике приводнение пассажирского самолета! До недавних пор все данные о происшествии были засекречены. Детали можно было узнать только у свидетелей, которых мы разыскивали несколько месяцев. Это произошло 21 августа 1963 года. В тот день планировался обычный рейс - из Таллинна в Москву. На борту - 44 пассажира и 6 членов экипажа. Но через минуту после взлета техник замечает, что передняя стойка шасси убралась не полностью, осталась в полусогнутом положении - ее заклинило. Капитан Ту-124 Виктор Мостовой передает диспетчеру о неполадке. В ответ слышит: готовьтесь к аварийной посадке. Обычно в такой ситуации борт возвращается обратно в аэропорт, пока не поздно. Но в Таллине из-за тумана плохая видимость. Поэтому диспетчеры отправляют самолет в ближайший город, где есть аварийная полоса и летная погода. Им оказывается Ленинград.
Качество: HDTVRip
Формат: AVI
Видео кодек: XviD
Аудио кодек: AC-3
Видео: 720x400 (1.80:1), 25 fps, XviD build 73 ~1799 kbps avg, 0.25 bit/pixel
Аудио: AC-3, 2 канала, 48,0 КГц, ~192 kbps

MI

ОбщееПолное имя : F:\Posadka na Nevu.HDTVRip.GeneralFilm.aviФормат : AVIФормат/Информация : Audio Video InterleaveРазмер файла : 746 МбайтПродолжительность : 52 м.Общий поток : 2002 Кбит/секПрограмма кодирования : VirtualDubMod 1.5.10.3 | www.virtualdub-fr.org || (build 2550/release)Библиотека кодирования : VirtualDub build 32507/release
ВидеоИдентификатор : 0Формат : MPEG-4 VisualПрофиль формата : Advanced Simple@L5Параметр BVOP формата : 1Параметр QPel формата : НетПараметр GMC формата : Без точки переходаПараметр матрицы формата : ВыборочнаяИдентификатор кодека : XVIDИдентификатор кодека/Подсказка : XviDПродолжительность : 52 м.Битрейт : 1800 Кбит/секШирина : 720 пикс.Высота : 400 пикс.Соотношение сторон : 16:9Частота кадров : 25,000 кадр/секЦветовое пространство : YUVПодвыборка цветности : 4:2:0Битовая глубина : 8 битТип развёртки : ПрогрессивнаяМетод сжатия : С потерямиБит/(Пиксели*Кадры) : 0.250Размер потока : 671 Мбайт (90%)Библиотека кодирования : XviD 73
АудиоИдентификатор : 1Формат : AC-3Формат/Информация : Audio Coding 3Расширение режима : CM (complete main)Идентификатор кодека : 2000Продолжительность : 52 м.Вид битрейта : ПостоянныйБитрейт : 192 Кбит/секКаналы : 2 каналаРасположение каналов : Front: L RЧастота : 48,0 КГцБитовая глубина : 16 битМетод сжатия : С потерямиРазмер потока : 71,6 Мбайт (10%)Выравнивание : Разделение по промежуткамПродолжительность промежутка : 40 мс. (1,00 видеокадр)Время предзагрузки промежутка : 500 ms
Раздача группы:
Отдельное спасибо olegka7373 за предоставление материала.
Релиз:

Скриншоты

Показать сообщения:    

Текущее время: 22-Окт 16:21

Часовой пояс: UTC - 1


Вы не можете начинать темы
Вы не можете отвечать на сообщения
Вы не можете редактировать свои сообщения
Вы не можете удалять свои сообщения
Вы не можете голосовать в опросах
Вы не можете прикреплять файлы к сообщениям
Вы не можете скачивать файлы

!ВНИМАНИЕ!
Сайт не предоставляет электронные версии произведений, а занимается лишь коллекционированием и каталогизацией ссылок, присылаемых и публикуемых на форуме нашими читателями. Если вы являетесь правообладателем какого-либо представленного материала и не желаете, чтобы ссылка на него находилась в нашем каталоге, свяжитесь с нами, и мы незамедлительно удалим ее. Файлы для обмена на трекере предоставлены пользователями сайта, и администрация не несет ответственности за их содержание. Просьба не заливать файлы, защищенные авторскими правами, а также файлы нелегального содержания!