Важное объявление!
У Нас Все раздачи мультитрекерные, при нуле пиров в релизах, можете смело вставать на закачку!
 
Автор Сообщение

HUNTER

Стаж:
4 года 10 месяцев
Сообщений:
65561

Репутация: 101

[+] [-]
Вне форума [Профиль] [ЛС]

| Все релизы мультфильма || BDRip 720p, 3.55 GB |- P R E S E N T SТэд Джонс и Затерянный город / Las aventuras de Tadeo Jones / Tad the Lost Explorer-
Страна: Испания
Жанр: мультфильм, приключения, комедия, семейный
Продолжительность: 01:32:06
Год выпуска: 2012
Перевод: Профессиональный (полное дублирование)
Субтитры: есть-Режиссёр: Энрике Гато / Enrique Gato
Роли озвучивали: Оскар Барберан, Меритксель Ане, Белинда, Карлес Канут, Мишель Хеннер, Мигель Анхель Дженнер, Энрикета Линарес, Марта Мартурель, Хосе Мота, Пеп Антон Муньос, Луис Посада, Джорди Ройо
Роли дублировали: Пётр Иващенко, Марина Александрова, Григорий Антипенко, Станислав Дужников, Фёдр Добронравов, Татьяна Шитова, Андрей Бархударов, Олег Форостенко, Алексей Рыжков- | | -Описание: Тэд - обычный чикагский строитель, страстно мечтающий о невероятных открытиях и опасных приключениях. Однажды его по ошибке принимают за известного археолога и отправляют в Перу на поиски сокровищ инков. Радости Тэда не было предела, но, похоже, она оказалась преждевременной...-Доп. информация: BDRip 1280x692 (1.850:1) сделан с Blu-Ray диска Tad The Lost Explorer 2012 1080p Blu-Ray AVC DTS-HD MA 5.1-HDWinG (Немецкий BD / German BD).-Сэмпл/Sample (31.3 MB, 1 минута)-Качество: BDRip 720p
Формат: MKV
Видео: 1280x692 (1.850:1), 23,976 fps, ~4240 kbps avg, 0.200 bit/pixel
Аудио #1: Русский, AC3, 6 ch, 48 kHz, 640 kbps - Дубляж | BD RUS
Аудио #2: English, AC3, 6 ch, 48 kHz, 640 kbps - Dubbing
Субтитры: Русские, English, German
Навигация по главам: есть (12 не именованных глав)

MediaInfo / x264Log

x264Log

raw [info]: 1280x692p 1:1 @ 24000/1001 fps (cfr)x264 [info]: using SAR=1/1x264 [info]: using cpu capabilities: MMX2 SSE2Fast SSSE3 SSE4.2 AVX XOP FMA4 FMA3 SSEMisalign LZCNT BMI1x264 [info]: profile High, level 4.1x264 [info]: frame I:1104 Avg QP:14.07 size:143805 PSNR Mean Y:49.02 U:51.62 V:51.58 Avg:49.71 Global:49.16x264 [info]: frame P:37799 Avg QP:16.04 size: 42548 PSNR Mean Y:47.22 U:50.03 V:49.88 Avg:47.94 Global:47.29x264 [info]: frame B:93577 Avg QP:19.06 size: 12415 PSNR Mean Y:46.53 U:49.61 V:49.47 Avg:47.30 Global:46.59x264 [info]: consecutive B-frames: 6.1% 8.2% 14.1% 26.8% 14.7% 25.2% 2.4% 0.8% 0.7% 0.4% 0.3% 0.3%x264 [info]: mb I I16..4: 2.8% 66.9% 30.3%x264 [info]: mb P I16..4: 1.1% 15.5% 4.7% P16..4: 23.7% 22.3% 12.2% 3.2% 0.5% skip:16.9%x264 [info]: mb B I16..4: 0.3% 2.5% 0.8% B16..8: 23.5% 16.2% 3.1% direct: 4.6% skip:49.0% L0:37.7% L1:43.8% BI:18.5%x264 [info]: 8x8 transform intra:71.2% inter:50.9%x264 [info]: coded y,uvDC,uvAC intra: 78.4% 83.6% 65.7% inter: 18.8% 18.9% 4.8%x264 [info]: i16 v,h,dc,p: 28% 17% 5% 51%x264 [info]: i8 v,h,dc,ddl,ddr,vr,hd,vl,hu: 15% 15% 13% 8% 9% 9% 10% 10% 13%x264 [info]: i4 v,h,dc,ddl,ddr,vr,hd,vl,hu: 30% 12% 9% 6% 10% 9% 9% 7% 8%x264 [info]: i8c dc,h,v,p: 32% 31% 21% 16%x264 [info]: Weighted P-Frames: Y:3.3% UV:2.4%x264 [info]: ref P L0: 56.9% 13.9% 14.1% 4.7% 3.2% 2.4% 1.9% 1.3% 1.2% 0.3% 0.0%x264 [info]: ref B L0: 81.6% 9.0% 4.2% 1.9% 1.3% 1.0% 0.6% 0.3%x264 [info]: ref B L1: 93.8% 6.2%x264 [info]: SSIM Mean Y:0.9894645 (19.773db)x264 [info]: PSNR Mean Y:46.749 U:49.746 V:49.608 Avg:47.500 Global:46.799 kb/s:4240.34encoded 132480 frames, 7.74 fps, 4240.34 kb/s
GeneralUnique ID : 222995319089979300735065726607721007618 (0xA7C35614701AF1A1A791383DF81C8A02)Complete name : Tad.the.Lost.Explorer.2012.Ger.Transfer.BDRip.720p.dfcbit.mkvFormat : MatroskaFormat version : Version 2File size : 3.55 GiBDuration : 1h 32mnOverall bit rate : 5 522 KbpsEncoded date : UTC 2013-08-06 17:13:50Writing application : mkvmerge v4.0.0 ('The Stars were mine') built on Jun 6 2010 16:18:42Writing library : libebml v1.0.0 + libmatroska v1.0.0
VideoID : 1Format : AVCFormat/Info : Advanced Video CodecFormat profile : High@L4.1Format settings, CABAC : YesFormat settings, ReFrames : 9 framesCodec ID : V_MPEG4/ISO/AVCDuration : 1h 32mnBit rate : 4 240 KbpsWidth : 1 280 pixelsHeight : 692 pixelsDisplay aspect ratio : 1.85:1Frame rate mode : ConstantFrame rate : 23.976 fpsColor space : YUVChroma subsampling : 4:2:0Bit depth : 8 bitsScan type : ProgressiveBits/(Pixel*Frame) : 0.200Stream size : 2.73 GiB (75%)Title : NTSC, 1280x692 (1.850:1), BDRip 720p - tRuAVC & Multfilmy [DFCbit]Writing library : x264 core 135 r2345kMod f0c1c53Encoding settings : cabac=1 / ref=9 / deblock=1:-2:-1 / analyse=0x3:0x133 / me=umh / subme=11 / psy=1 / fade_compensate=0.00 / psy_rd=0.60:0.00 / mixed_ref=1 / me_range=32 / chroma_me=1 / trellis=2 / 8x8dct=1 / cqm=0 / deadzone=21,11 / fast_pskip=0 / chroma_qp_offset=-2 / threads=12 / lookahead_threads=3 / sliced_threads=0 / nr=0 / decimate=1 / interlaced=0 / bluray_compat=0 / constrained_intra=0 / bframes=11 / b_pyramid=2 / b_adapt=2 / b_bias=0 / direct=1 / weightb=1 / open_gop=0 / weightp=2 / keyint=250 / keyint_min=23 / scenecut=40 / intra_refresh=0 / rc_lookahead=70 / rc=crf / mbtree=0 / crf=17.2620 / qcomp=0.80 / qpmin=0 / qpmax=69 / qpstep=4 / vbv_maxrate=50000 / vbv_bufsize=62500 / crf_max=0.0 / nal_hrd=none / ip_ratio=1.40 / pb_ratio=1.30 / aq=3:0.90Language : EnglishDefault : YesForced : NoColor primaries : BT.709Transfer characteristics : BT.709Matrix coefficients : BT.709
Audio #1ID : 2Format : AC-3Format/Info : Audio Coding 3Mode extension : CM (complete main)Format settings, Endianness : BigCodec ID : A_AC3Duration : 1h 32mnBit rate mode : ConstantBit rate : 640 KbpsChannel(s) : 6 channelsChannel positions : Front: L C R, Side: L R, LFESampling rate : 48.0 KHzBit depth : 16 bitsCompression mode : LossyStream size : 422 MiB (12%)Title : AC3, 6 ch, 48 kHz, 640 kbps, Dubbing | BD RUSLanguage : RussianDefault : YesForced : No
Audio #2ID : 3Format : AC-3Format/Info : Audio Coding 3Mode extension : CM (complete main)Format settings, Endianness : BigCodec ID : A_AC3Duration : 1h 32mnBit rate mode : ConstantBit rate : 640 KbpsChannel(s) : 6 channelsChannel positions : Front: L C R, Side: L R, LFESampling rate : 48.0 KHzBit depth : 16 bitsCompression mode : LossyStream size : 422 MiB (12%)Title : AC3, 6 ch, 48 kHz, 640 kbps, DubbingLanguage : EnglishDefault : NoForced : No
Text #1ID : 4Format : UTF-8Codec ID : S_TEXT/UTF8Codec ID/Info : UTF-8 Plain TextTitle : SRT, FullLanguage : RussianDefault : NoForced : No
Text #2ID : 5Format : UTF-8Codec ID : S_TEXT/UTF8Codec ID/Info : UTF-8 Plain TextTitle : SRT, FullLanguage : EnglishDefault : NoForced : No
Text #3ID : 6Format : UTF-8Codec ID : S_TEXT/UTF8Codec ID/Info : UTF-8 Plain TextTitle : SRT, FullLanguage : GermanDefault : NoForced : No
Menu00:00:00.000 : en:Chapter 100:07:51.429 : en:Chapter 200:14:35.500 : en:Chapter 300:20:53.794 : en:Chapter 400:29:48.412 : en:Chapter 500:36:19.344 : en:Chapter 600:43:59.762 : en:Chapter 700:51:55.321 : en:Chapter 800:59:49.669 : en:Chapter 901:06:42.498 : en:Chapter 1001:14:55.574 : en:Chapter 1101:23:47.272 : en:Chapter 12

Скриншоты

Скриншот с названием мультфильма
--BDRip 720p


Source Blu-Ray

Релиз от групп | and | -Данный релиз не будет воспроизводиться на бытовых плеерах не поддерживающих MKV и H.264Обсуждение релизов в AVC формате || Свежие AVC рипы-Приятного просмотра!Просьба к скачавшим: не уходите с раздачи!

_________________
Показать сообщения:    

Текущее время: Сегодня 15:36

Часовой пояс: GMT



Вы не можете начинать темы
Вы не можете отвечать на сообщения
Вы не можете редактировать свои сообщения
Вы не можете удалять свои сообщения
Вы не можете голосовать в опросах
Вы не можете прикреплять файлы к сообщениям
Вы не можете скачивать файлы