Важное объявление!
У Нас Все раздачи мультитрекерные, при нуле пиров в релизах, можете смело вставать на закачку!
 
Автор Сообщение

K.I.N.G

Стаж:
3 года 4 месяца
Сообщений:
16

Репутация: 7

[+] [-]
Вне форума [Профиль] [ЛС]

Within Temptation - The Q-Music Sessions
Исполнитель:Within Temptation
Название альбома:The Q-Music Sessions
Жанр: Symphonic Metal
Страна : Netherlands
Год выпуска:2013
Формат :FLAC
Тип рипаtracks
Битрейт аудио:943kbps
Продолжительность:00:41:55
Наличие сканов в содержимом раздачи: нет-Трэклист :

[03:45] 01. Within Temptation - Grenade
[03:57] 02. Within Temptation - Titanium
[03:43] 03. Within Temptation - Let Her Go
[04:06] 04. Within Temptation - Summertime Sadness
[03:14] 05. Within Temptation - Radioactive
[03:31] 06. Within Temptation - Crazy
[04:14] 07. Within Temptation - Dirty Dancer
[03:36] 08. Within Temptation - Don't You Worry Child
[04:19] 09. Within Temptation - Behind Blue Eyes
[03:59] 10. Within Temptation - The Power Of Love
[03:25] 11. Within Temptation - Apologize
-Доп. информация:

Log EAC

Exact Audio Copy V1.0 beta 3 from 29. August 2011
EAC extraction logfile from 28. April 2013, 16:28
Within Temptation / The Q-Music Sessions
Used drive : HP DVD Writer 1170d Adapter: 2 ID: 0
Read mode : Secure
Utilize accurate stream : Yes
Defeat audio cache : Yes
Make use of C2 pointers : No
Read offset correction : 6
Overread into Lead-In and Lead-Out : No
Fill up missing offset samples with silence : Yes
Delete leading and trailing silent blocks : No
Null samples used in CRC calculations : Yes
Used interface : Native Win32 interface for Win NT & 2000
Used output format : User Defined Encoder
Selected bitrate : 1024 kBit/s
Quality : High
Add ID3 tag : No
Command line compressor : C:Program FilesExact Audio CopyFLACFLAC.EXE
Additional command line options : -V -8 -T "Date=%year%" -T "Genre=%genre%" %source%
TOC of the extracted CD
Track | Start | Length | Start sector | End sector
---------------------------------------------------------
1 | 0:00.00 | 3:45.09 | 0 | 16883
2 | 3:45.09 | 3:57.35 | 16884 | 34693
3 | 7:42.44 | 3:43.44 | 34694 | 51462
4 | 11:26.13 | 4:06.54 | 51463 | 69966
5 | 15:32.67 | 3:14.41 | 69967 | 84557
6 | 18:47.33 | 3:31.39 | 84558 | 100421
7 | 22:18.72 | 4:14.57 | 100422 | 119528
8 | 26:33.54 | 3:36.68 | 119529 | 135796
9 | 30:10.47 | 4:19.56 | 135797 | 155277
10 | 34:30.28 | 3:59.62 | 155278 | 173264
11 | 38:30.15 | 3:25.54 | 173265 | 188693
Range status and errors
Selected range
Filename C:UsersDimaMusicWithin Temptation - The Q-Music Sessions.wav
Peak level 98.8 %
Extraction speed 6.4 X
Range quality 99.9 %
Test CRC A64B24F6
Copy CRC A64B24F6
Copy OK
No errors occurred
AccurateRip summary
Track 1 not present in database
Track 2 not present in database
Track 3 not present in database
Track 4 not present in database
Track 5 not present in database
Track 6 not present in database
Track 7 not present in database
Track 8 not present in database
Track 9 not present in database
Track 10 not present in database
Track 11 not present in database
None of the tracks are present in the AccurateRip database
End of status report
---- CUETools DB Plugin V2.1.3
[CTDB TOCID: hWuCR7i8N6s6eXswHBZenkRx_Ig-] found, Submit result: hWuCR7i8N6s6eXswHBZenkRx_Ig- has been confirmed
[69c7173c] (4/4) Accurately ripped
==== Log checksum 6EB54C6E7167ABD99E33BC85F93AE6EE71FE216156CD2CD178F7026E69D1AF7C ====
Показать сообщения:    

Текущее время: Сегодня 08:35

Часовой пояс: GMT



Вы не можете начинать темы
Вы не можете отвечать на сообщения
Вы не можете редактировать свои сообщения
Вы не можете удалять свои сообщения
Вы не можете голосовать в опросах
Вы не можете прикреплять файлы к сообщениям
Вы не можете скачивать файлы