Ивановский Торрент трекер
Яндекс.Погода
Статистика раздачи
Размер:  3.81 GB   |    Зарегистрирован:  5 месяцев 13 дней   |    Скачан:  0 раз
Сидов:  1  [  0 KB/s  ]   Личеров:  1  [  0 KB/s  ]   Подробная статистика пиров
 
     
 
 
 

[Цитировать]
HUNTER

Свадьба
Noces / A Wedding

Страна: Франция, Бельгия, Пакистан, Люксембург
Жанр: драма
Год выпуска: 2016
Продолжительность: 01:37:33
Перевод: Субтитры
Субтитры: английские (web, bluray), немецкие, французские, русские
Оригинальная аудиодорожка: французский
Режиссер: Стивен Стрекер / Stephan Streker
В ролях: Lina Elarabi, Sébastien Houbani, Бабак Карими, Нина Кулкарни, Оливье Гурме, Элис де Ланкесэ, Захари Шассерьо, Аврора Мэрион, Rania Mellouli, Harmandeep Palminder
Описание:
Восемнадцатилетняя Заира, бельгийка пакистанского происхождения, счастливо живет в дружной семье до того момента, пока ей не начинают навязывать традиционный брак. Девушка не хочет поступаться свободой и отказываться от западного образа жизни, несмотря на требования родителей. Она рассчитывает на помощь своего старшего брата и утешителя Амира.
- || [box=#161C1E,#161C1E]
участник фестиваля[/box]2O18 года
-Тип релиза: BDRip 720p (рип от Ryzen@VietHD)
Контейнер: MKV
Видео: AVC (x264), 1280x536 (2.40:1) at 24,000 fps, 4836 Кbps
Аудио 1: AC3; 640 Kbps; CBR; 6 ch; 48 khz | Французский |
Формат субтитров: softsub (SRT);

Скриншоты || x264 Info || MediaInfo || Notes

MediaInfo

Код:General
Unique ID : 222384123712480742952641103580400694422 (0xA74D9FD237BE1B9CA28A7548E5A3B496)
Complete name : Свадьба.2016.RUSSUB.720p.BluRay.x264-VietHD.mkv
Format : Matroska
Format version : Version 4 / Version 2
File size : 3.81 GiB
Duration : 1 h 37 min
Overall bit rate : 5 587 kb/s
Movie name : A Wedding [2016] [720p] RUSSUB
Encoded date : UTC 2018-01-19 15:42:00
Writing application : mkvmerge v7.8.0 ('River Man') 32bit built on Mar 27 2015 16:18:02
Writing library : libebml v1.3.1 + libmatroska v1.4.2
Video
ID : 1
Format : AVC
Format/Info : Advanced Video Codec
Format profile : High@L4.1
Format settings : CABAC / 12 Ref Frames
Format settings, CABAC : Yes
Format settings, RefFrames : 12 frames
Codec ID : V_MPEG4/ISO/AVC
Duration : 1 h 37 min
Bit rate : 4 836 kb/s
Width : 1 280 pixels
Height : 536 pixels
Display aspect ratio : 2.40:1
Frame rate mode : Constant
Frame rate : 24.000 FPS
Color space : YUV
Chroma subsampling : 4:2:0
Bit depth : 8 bits
Scan type : Progressive
Bits/(Pixel*Frame) : 0.294
Stream size : 3.30 GiB (87%)
Title : profile.php?mode=viewprofile&u=22488948
Writing library : x264 core 152 r2851+58 429492e t_mod_Custom [8-bit@all X86_64]
Encoding settings : cabac=1 / ref=12 / deblock=1:-3:-3 / analyse=0x3:0x113 / me=umh / subme=10 / psy=1 / fade_compensate=0.00 / psy_rd=1.00:0.00 / mixed_ref=1 / me_range=32 / chroma_me=1 / trellis=2 / 8x8dct=1 / cqm=0 / deadzone=21,11 / fast_pskip=0 / chroma_qp_offset=-2 / threads=17 / lookahead_threads=2 / sliced_threads=0 / nr=0 / decimate=0 / interlaced=0 / bluray_compat=0 / constrained_intra=0 / fgo=0 / bframes=7 / b_pyramid=2 / b_adapt=2 / b_bias=0 / direct=3 / weightb=1 / open_gop=0 / weightp=2 / keyint=250 / keyint_min=24 / scenecut=40 / intra_refresh=0 / rc_lookahead=60 / rc=crf / mbtree=0 / crf=16.2000 / qcomp=0.60 / qpmin=0:0:0 / qpmax=69:69:69 / qpstep=4 / vbv_maxrate=62500 / vbv_bufsize=78125 / crf_max=0.0 / nal_hrd=none / filler=0 / ip_ratio=1.30 / pb_ratio=1.20 / aq=3:0.80 / aq-sensitivity=10.00 / aq-factor=1.00:1.00:1.00 / aq2=0 / aq3=0
Language : French
Default : Yes
Forced : No
Color range : Limited
Matrix coefficients : BT.709
Audio
ID : 2
Format : AC-3
Format/Info : Audio Coding 3
Codec ID : A_AC3
Duration : 1 h 37 min
Bit rate mode : Constant
Bit rate : 640 kb/s
Channel(s) : 6 channels
Channel positions : Front: L C R, Side: L R, LFE
Sampling rate : 48.0 kHz
Frame rate : 31.250 FPS (1536 SPF)
Bit depth : 16 bits
Compression mode : Lossy
Stream size : 447 MiB (11%)
Language : French
Service kind : Complete Main
Default : Yes
Forced : No
Text #1
ID : 3
Format : UTF-8
Codec ID : S_TEXT/UTF8
Codec ID/Info : UTF-8 Plain Text
Language : Russian
Default : Yes
Forced : No
Text #2
ID : 4
Format : UTF-8
Codec ID : S_TEXT/UTF8
Codec ID/Info : UTF-8 Plain Text
Title : web
Language : French
Default : No
Forced : No
Text #3
ID : 5
Format : UTF-8
Codec ID : S_TEXT/UTF8
Codec ID/Info : UTF-8 Plain Text
Title : web
Language : German
Default : No
Forced : No
Text #4
ID : 6
Format : UTF-8
Codec ID : S_TEXT/UTF8
Codec ID/Info : UTF-8 Plain Text
Title : bluray
Language : English
Default : No
Forced : No
Text #5
ID : 7
Format : UTF-8
Codec ID : S_TEXT/UTF8
Codec ID/Info : UTF-8 Plain Text
Title : web
Language : English
Default : No
Forced : No
Menu
00:00:00.000 : en:Chapter 01
00:06:30.875 : en:Chapter 02
00:13:40.542 : en:Chapter 03
00:19:11.625 : en:Chapter 04
00:24:57.917 : en:Chapter 05
00:35:28.833 : en:Chapter 06
00:44:09.667 : en:Chapter 07
00:50:07.750 : en:Chapter 08
00:57:43.667 : en:Chapter 09
01:09:20.042 : en:Chapter 10
01:16:40.208 : en:Chapter 11
01:27:30.583 : en:Chapter 12

x264 Info

[box=#F5F5F5,#F5F5F5]x264 [info]: frame I:829 Avg QP:12.29 size: 98418[/box]x264 [info]: frame P:27431 Avg QP:13.62 size: 42357x264 [info]: frame B:112222 Avg QP:14.54 size: 21164x264 [info]: consecutive B-frames: 1.2% 1.3% 5.1% 12.8% 14.0% 53.5% 8.3% 3.8%
Цитата:[box=#F5F5F5,#F5F5F5] За поиск исходника, огромная благодарность Ltcorbis[/box]
[iv-torrents.ru].t82644.torrent
Торрент: Зарегистрирован [ 2018-08-05 17:06 ] · 53240D226479E32EBB073B2D30B88F23DADD2008

Скачать .torrent

Скачать

20 KB

Статус: проверено
Скачан: 0 раз
Размер: 3.81 GB
terms.php


Показать сообщения:    

Текущее время: 19-Янв 10:06

Часовой пояс: UTC ± 0


Вы не можете начинать темы
Вы не можете отвечать на сообщения
Вы не можете редактировать свои сообщения
Вы не можете удалять свои сообщения
Вы не можете голосовать в опросах
Вы не можете прикреплять файлы к сообщениям
Вы можете скачивать файлы

!ВНИМАНИЕ!
Сайт не предоставляет электронные версии произведений, а занимается лишь коллекционированием и каталогизацией ссылок, присылаемых и публикуемых на форуме нашими читателями. Если вы являетесь правообладателем какого-либо представленного материала и не желаете, чтобы ссылка на него находилась в нашем каталоге, свяжитесь с нами, и мы незамедлительно удалим ее. Файлы для обмена на трекере предоставлены пользователями сайта, и администрация не несет ответственности за их содержание. Просьба не заливать файлы, защищенные авторскими правами, а также файлы нелегального содержания!