Ивановский Торрент трекер
Яндекс.Погода
 

[Quote]
HUNTER

Superнянь 2 / Babysitting 2
Страна: Франция
Студия: Axel Films, Madame Films
Жанр: комедия
Год выпуска: 2015
Продолжительность: 01:28:59
Перевод: Профессиональный (дублированный)
Субтитры: нет
Оригинальная аудиодорожка: нет
Режиссер: Николя Бенаму, Филипп Лашо / Nicolas Benamou, Philippe Lacheau
В ролях: Филипп Лашо, Алис Давид, Венсан Дезанья, Тарек Будали, Кристиан Клавье, Жюльен Аррути, Шарлотта Габрис, Грегуар Людиг, Валериан де Вилленьюв, Давид Марсе
Описание: Влюбленная парочка Фрэнк и Соня приглашают своих друзей на отдых в Бразилию, в роскошный отель богатенького папы Сони. Планировалось, что это будет отдых мечты, а Фрэнк сделает Соне предложение посреди всей этой экзотики. Но его попытки получить одобрение отца оборачиваются полным провалом. Ведь с такими друзьями, как у него, и враги не нужны!
Но настоящая катастрофа — впереди. Когда друзья — сексуально озабоченный Сэм, наивный чудак Эрнест и умственно отсталый Алекс — вместе с беднягой Фрэнком собрались на экскурсию, ушлый папаша пользуется возможностью и засылает в джунгли с этой бандой свою крикливую и надоедливую старушку. В общем, Амазонка и ее девственные леса еще никогда не были в такой опасности!
Дополнительные материалы: Анонсы
Меню: есть, статичное, озвученное
Сэмпл
Тип релиза: DVD9
Контейнер: DVD-Video
Видео: PAL 16:9 (720x576(0.721)) MPEG Video, 25,000 кадр/сек, 7472 Кбит/сек
Аудио: Russian (Dolby AC-3, 6 ch) 448 Кбит/сек, 48.0 КГц

DVDInfo

Title: BABYSITTING_2
Disk size: 5.52 Gb ( 5 789 196,00 KBytes )
DVD Type: DVD-9
Enabled regions: 1,2,3,4,5,6,7,8
VTS_01:
Title Play Length: 00:00:15
Video: PAL 4:3 (720x576) VBR
Audio (1):
Not specified (Dolby AC3, 2 ch)
Subtitles (0)
VTS_02:
Title Play Length: 00:00:08
Video: PAL 16:9 (720x576) VBR,Auto Letterboxed
Audio (1):
Not specified (Dolby AC3, 2 ch)
Subtitles (0)
VTS_03:
Title Play Length: 00:01:09
Video: PAL 16:9 (720x576) VBR,Auto Letterboxed
Audio (1):
Russian (Dolby AC3, 2 ch)
Subtitles (0)
VTS_04:
Title Play Length: 00:01:14
Video: PAL 16:9 (720x576) VBR,Auto Letterboxed
Audio (1):
Russian (Dolby AC3, 2 ch)
Subtitles (0)
VTS_05:
Title Play Length: 00:02:25
Video: PAL 16:9 (720x576) VBR,Auto Letterboxed
Audio (1):
Russian (Dolby AC3, 2 ch)
Subtitles (0)
VTS_06:
Title Play Length: 00:01:07
Video: PAL 16:9 (720x576) VBR,Auto Letterboxed
Audio (1):
Russian (Dolby AC3, 2 ch)
Subtitles (0)
VTS_07:
Title Play Length: 00:01:14
Video: PAL 16:9 (720x576) VBR,Auto Letterboxed
Audio (1):
Russian (Dolby AC3, 2 ch)
Subtitles (0)
VTS_08:
Title Play Length: 00:01:09
Video: PAL 16:9 (720x576) VBR,Auto Letterboxed
Audio (1):
Russian (Dolby AC3, 2 ch)
Subtitles (0)
VTS_09:
Title Play Length: 00:02:28
Video: PAL 16:9 (720x576) VBR,Auto Letterboxed
Audio (1):
Russian (Dolby AC3, 2 ch)
Subtitles (0)
VTS_10:
Title Play Length: 01:28:59
Video: PAL 16:9 (720x576) VBR,Auto Letterboxed
Audio (1):
Russian (Dolby AC3, 6 ch)
Subtitles (0)
VTS_11:
Title Play Length: 00:00:01
Video: PAL 16:9 (720x576) VBR,Auto Letterboxed
Audio (1):
Russian (Dolby AC3, 2 ch)
Subtitles (0)
* Menus Information *
VIDEO_TS Menu
Video:
PAL 16:9 (720x576) VBR
Auto Pan&Scan
Audio (1):
Not specified (LinearPCM, 2 ch)
English Language Unit :
Title Menu
VTS_01 Menu
Video:
PAL 16:9 (720x576) VBR
Auto Letterboxed
Audio (1):
Not specified (Dolby AC3, 2 ch)
English Language Unit :
Root Menu
Chapter (PTT) Menu
VTS_02 Menu
Video:
NTSC 4:3 (720x480) VBR
Auto Pan&Scan, Auto Letterboxed
Audio (0)
English Language Unit :
Root Menu
Chapter (PTT) Menu
VTS_03 Menu
Video:
NTSC 4:3 (720x480) VBR
Auto Pan&Scan, Auto Letterboxed
Audio (0)
English Language Unit :
Root Menu
Chapter (PTT) Menu
VTS_04 Menu
Video:
NTSC 4:3 (720x480) VBR
Auto Pan&Scan, Auto Letterboxed
Audio (0)
English Language Unit :
Root Menu
Chapter (PTT) Menu
VTS_05 Menu
Video:
NTSC 4:3 (720x480) VBR
Auto Pan&Scan, Auto Letterboxed
Audio (0)
English Language Unit :
Root Menu
Chapter (PTT) Menu
VTS_06 Menu
Video:
NTSC 4:3 (720x480) VBR
Auto Pan&Scan, Auto Letterboxed
Audio (0)
English Language Unit :
Root Menu
Chapter (PTT) Menu
VTS_07 Menu
Video:
NTSC 4:3 (720x480) VBR
Auto Pan&Scan, Auto Letterboxed
Audio (0)
English Language Unit :
Root Menu
Chapter (PTT) Menu
VTS_08 Menu
Video:
NTSC 4:3 (720x480) VBR
Auto Pan&Scan, Auto Letterboxed
Audio (0)
English Language Unit :
Root Menu
Chapter (PTT) Menu
VTS_09 Menu
Video:
NTSC 4:3 (720x480) VBR
Auto Pan&Scan, Auto Letterboxed
Audio (0)
English Language Unit :
Root Menu
Chapter (PTT) Menu
VTS_10 Menu
Video:
NTSC 4:3 (720x480) VBR
Auto Pan&Scan, Auto Letterboxed
Audio (0)
English Language Unit :
Root Menu
Chapter (PTT) Menu
VTS_11 Menu
Video:
NTSC 4:3 (720x480) VBR
Auto Pan&Scan, Auto Letterboxed
Audio (0)
English Language Unit :
Root Menu
Chapter (PTT) Menu

MediaInfo

Общее
Полное имя : BABYSITTING_2\VIDEO_TS\VTS_10_1.VOB
Формат : MPEG-PS
Размер файла : 1000 Мбайт
Продолжительность : 17 м. 18 с.
Режим общего битрейта : Переменный
Общий поток : 8081 Кбит/сек
Видео
Идентификатор : 224 (0xE0)
Формат : MPEG Video
Версия формата : Version 2
Профиль формата : [email protected]
Настройки формата : BVOP
Параметр BVOP формата : Да
Параметр матрицы формата : По умолчанию
Параметр GOP формата : Variable
Продолжительность : 17 м. 18 с.
Вид битрейта : Переменный
Битрейт : 7472 Кбит/сек
Максимальный битрейт : 8500 Кбит/сек
Ширина : 720 пикселей
Высота : 576 пикселей
Соотношение сторон : 16:9
Частота кадров : 25,000 кадров/сек
Стандарт вещания : PAL
Цветовое пространство : YUV
Субдискретизация насыщенности : 4:2:0
Битовая глубина : 8 бит
Тип развёртки : Прогрессивная
Метод сжатия : С потерями
Бит/(Пиксели*Кадры) : 0.721
Временной код первого кадра : 00:00:00:00
Оригинал временного кода : Group of pictures header
Размер потока : 925 Мбайт (92%)
Аудио
Идентификатор : 189 (0xBD)-128 (0x80)
Формат : AC-3
Формат/Информация : Audio Coding 3
Режим смешивания : DVD-Video
Продолжительность : 17 м. 17 с.
Вид битрейта : Постоянный
Битрейт : 448 Кбит/сек
Каналы : 6 каналов
Расположение каналов : Front: L C R, Side: L R, LFE
Частота : 48,0 КГц
Частота кадров : 31,250 кадров/сек (1536 SPF)
Битовая глубина : 16 бит
Метод сжатия : С потерями
Размер потока : 55,4 Мбайт (6%)
ServiceKind/String : Complete Main

Скриншоты меню

Скриншоты



Display posts:    

Current time is: 07-Jul 05:53

All times are UTC ± 0


You cannot post new topics in this forum
You cannot reply to topics in this forum
You cannot edit your posts in this forum
You cannot delete your posts in this forum
You cannot vote in polls in this forum
You cannot attach files in this forum
You cannot download files in this forum

!ATTENTION!
The site does not give electronic versions of products, and is engaged only in a collecting and cataloguing of the references sent and published at a forum by our readers. If you are the legal owner of any submitted material and do not wish that the reference to it was in our catalogue, contact us and we shall immediately remove her. Files for an exchange on tracker are given by users of a site, and the administration does not bear the responsibility for their maintenance. The request to not fill in the files protected by copyrights, and also files of the illegal maintenance!