Ивановский Торрент трекер
Яндекс.Погода
Статистика раздачи
Размер:  7.2 GB   |    Зарегистрирован:  8 дней   |    Скачан:  0 раз
Сидов:  15  [  0 KB/s  ]   Подробная статистика пиров
 
     
 
 

[Цитировать]
HUNTER

Суперинтендант / The Super
Страна: США
Производство: Fortress Features, Wolf Films
Год выпуска: 2017
Жанр: ужасы, триллер
Продолжительность: 01:29:06
Перевод: Любительский (многоголосый, закадровый) | HDrezka Studio
Субтитры: английские (full + SDH)
Оригинальная аудиодорожка: английский
Режиссер: Штефан Рик / Stephan Rick
В ролях: Патрик Флюгер, Вэл Килмер, Луиса Краузе, Маттеа Конфорти, Тейлор Ричардсон, Пол Бен-Виктор
Описание: Бывший полицейский Фил устраивается суперинтендантом в большой жилой дом в центре Нью-Йорка и переезжает туда жить вместе с двумя дочерьми. В здании происходят загадочные исчезновения жильцов, а один из работников пугающе выглядит и странно себя ведёт...

Тип релиза: BDRip 1080p
Контейнер: MKV
Видео: MPEG-4 AVC, 1920x804 (2.40:1), 23.976 fps, ~10.9 Mbps avg
Аудио №1: 48.0 kHz, AC3 Dolby Digital, 2/0 (L,R) ch, ~192 kbps | RUS / HDrezka Studio
Аудио №2: 48.0 kHz, AC3 Dolby Digital, 3/2 (L,C,R,l,r) + LFE ch, ~448 kbps | ENG
Формат субтитров: softsub (SRT)
Реклама: нет

Дополнительная информация

Релиз от:

MediaInfo

General
Уникальный идентификатор : 173873830741946936628439816928764055311 (0x82CEE1B836A11F173807DE25317F4F0F)
Полное имя : The.Super.2017.BDRip(1080p).OlLanDGroup.mkv
Формат : Matroska
Версия формата : Version 4 / Version 2
Размер файла : 7,20 Гбайт
Продолжительность : 1 ч. 29 м.
Общий поток : 11,6 Мбит/сек
Название фильма : The.Super.2017 #TorpedoUK#
Дата кодирования : UTC 2019-01-02 18:29:13
Программа кодирования : mkvmerge v29.0.0 ('Like It Or Not') 64-bit
Библиотека кодирования : libebml v1.3.6 + libmatroska v1.4.9
Видео
Идентификатор : 1
Формат : AVC
Формат/Информация : Advanced Video Codec
Профиль формата : High@L4.1
Параметр CABAC формата : Да
Параметр ReFrames формата : 4 кадра
Идентификатор кодека : V_MPEG4/ISO/AVC
Продолжительность : 1 ч. 29 м.
Битрейт : 10,9 Мбит/сек
Ширина : 1920 пикселей
Высота : 804 пикселя
Соотношение сторон : 2,40:1
Режим частоты кадров : Постоянный
Частота кадров : 23,976 (24000/1001) кадра/сек
Цветовое пространство : YUV
Субдискретизация насыщенности : 4:2:0
Битовая глубина : 8 бит
Тип развёртки : Прогрессивная
Бит/(Пиксели*Кадры) : 0.295
Размер потока : 6,80 Гбайт (94%)
Библиотека кодирования : x264 core 155 r2867+74 66b5600 t_mod_Custom_2 [8-bit@all X86_64]
Настройки программы : cabac=1 / ref=4 / deblock=1:-3:-3 / analyse=0x3:0x113 / me=umh / subme=10 / psy=1 / fade_compensate=0.00 / psy_rd=0.90:0.10 / mixed_ref=1 / me_range=48 / chroma_me=1 / trellis=2 / 8x8dct=1 / cqm=0 / deadzone=21,11 / fast_pskip=0 / chroma_qp_offset=-2 / threads=12 / lookahead_threads=2 / sliced_threads=0 / nr=0 / decimate=1 / interlaced=0 / bluray_compat=0 / constrained_intra=0 / fgo=0 / bframes=8 / b_pyramid=2 / b_adapt=2 / b_bias=0 / direct=3 / weightb=1 / open_gop=0 / weightp=2 / keyint=250 / keyint_min=23 / scenecut=40 / intra_refresh=0 / rc_lookahead=40 / rc=crf / mbtree=0 / crf=19.0000 / qcomp=0.70 / qpmin=0:0:0 / qpmax=69:69:69 / qpstep=4 / vbv_maxrate=35000 / vbv_bufsize=35000 / crf_max=0.0 / nal_hrd=none / filler=0 / ip_ratio=1.40 / pb_ratio=1.30 / aq=3:0.90 / aq-sensitivity=10.00 / aq-factor=1.00:1.00:1.00 / aq2=0 / aq3=2:[0.50:0.50]:[0.50:0.50]:[0.50:0.50]:[0.50:0.50] / aq3-sensitivity=10.00 / aq3-factor=[1.00:1.00]:[1.00:1.00]:[1.00:1.00] / aq3-boundary=192:64:24
Язык : English
Default : Да
Forced : Нет
Цветовой диапазон : Limited
Коэффициенты матрицы : BT.709
Аудио #1
Идентификатор : 2
Формат : AC-3
Формат/Информация : Audio Coding 3
Расширение режима : CM (complete main)
Параметр Endianness формата : Big
Идентификатор кодека : A_AC3
Продолжительность : 1 ч. 29 м.
Вид битрейта : Постоянный
Битрейт : 192 Кбит/сек
Каналы : 2 канала
Расположение каналов : Front: L R
Частота : 48,0 КГц
Частота кадров : 31,250 кадров/сек (1536 spf)
Битовая глубина : 16 бит
Метод сжатия : С потерями
Размер потока : 122 Мбайт (2%)
Заголовок : MVO [HDRezka Studio]
Язык : Russian
Default : Да
Forced : Нет
Аудио #2
Идентификатор : 3
Формат : AC-3
Формат/Информация : Audio Coding 3
Расширение режима : CM (complete main)
Параметр Endianness формата : Big
Идентификатор кодека : A_AC3
Продолжительность : 1 ч. 29 м.
Вид битрейта : Постоянный
Битрейт : 448 Кбит/сек
Каналы : 6 каналов
Расположение каналов : Front: L C R, Side: L R, LFE
Частота : 48,0 КГц
Частота кадров : 31,250 кадров/сек (1536 spf)
Битовая глубина : 16 бит
Метод сжатия : С потерями
Размер потока : 286 Мбайт (4%)
Заголовок : [Original]
Язык : English
Default : Нет
Forced : Нет
Текст #1
Идентификатор : 4
Формат : UTF-8
Идентификатор кодека : S_TEXT/UTF8
Идентификатор кодека/Информация : UTF-8 Plain Text
Продолжительность : 1 ч. 24 м.
Битрейт : 33 бит/сек
Count of elements : 755
Размер потока : 20,7 Кбайт (0%)
Заголовок : Full
Язык : English
Default : Нет
Forced : Нет
Текст #2
Идентификатор : 5
Формат : UTF-8
Идентификатор кодека : S_TEXT/UTF8
Идентификатор кодека/Информация : UTF-8 Plain Text
Продолжительность : 1 ч. 27 м.
Битрейт : 36 бит/сек
Count of elements : 938
Размер потока : 23,7 Кбайт (0%)
Заголовок : SDH
Язык : English
Default : Нет
Forced : Нет
Меню
00:00:00.000 : :绗?01 绔?
00:06:45.739 : :绗?02 绔?
00:13:04.325 : :绗?03 绔?
00:16:20.479 : :绗?04 绔?
00:23:33.871 : :绗?05 绔?
00:28:27.915 : :绗?06 绔?
00:33:57.953 : :绗?07 绔?
00:38:33.686 : :绗?08 绔?
00:43:48.793 : :绗?09 绔?
00:48:32.618 : :绗?10 绔?
00:55:59.815 : :绗?11 绔?
01:00:18.323 : :绗?12 绔?
01:08:20.346 : :绗?13 绔?
01:11:29.202 : :绗?14 绔?
01:16:24.997 : :绗?15 绔?
01:22:49.548 : :绗?16 绔?

Скриншоты

[iv-torrents.ru].t92468.torrent
Торрент: Зарегистрирован [ 2019-01-10 18:57 ] · DFB648D1E1B4EF675F4E56D7F16D89E23F76CCA4

Скачать .torrent

Скачать

36 KB

Статус: проверено
Скачан: 0 раз
Размер: 7.2 GB
terms.php


Показать сообщения:    

Текущее время: 19-Янв 10:52

Часовой пояс: UTC ± 0


Вы не можете начинать темы
Вы не можете отвечать на сообщения
Вы не можете редактировать свои сообщения
Вы не можете удалять свои сообщения
Вы не можете голосовать в опросах
Вы не можете прикреплять файлы к сообщениям
Вы можете скачивать файлы

!ВНИМАНИЕ!
Сайт не предоставляет электронные версии произведений, а занимается лишь коллекционированием и каталогизацией ссылок, присылаемых и публикуемых на форуме нашими читателями. Если вы являетесь правообладателем какого-либо представленного материала и не желаете, чтобы ссылка на него находилась в нашем каталоге, свяжитесь с нами, и мы незамедлительно удалим ее. Файлы для обмена на трекере предоставлены пользователями сайта, и администрация не несет ответственности за их содержание. Просьба не заливать файлы, защищенные авторскими правами, а также файлы нелегального содержания!