Ивановский Торрент трекер
Яндекс.Погода
DL-List and Torrent activity
None
 
     
 
 

[Quote]
HUNTER

Супер Майк XXL / Magic Mike XXL
Страна: США
Студия: Warner Brothers, RatPac-Dune Entertainment
Жанр: комедия, музыка, драма
Год выпуска: 2015
Продолжительность: 01:50:35
Перевод: Профессиональный (дублированный)
Субтитры: английские (СС), чешские, эстонские, латышские, литовские, португальские, русские, чешские (форс.), русские (форс.)
Оригинальная аудиодорожка: английская
Режиссер: Грегори Джейкобс / Gregory Jacobs
В ролях: Ченнинг Татум, Джо Манганьелло, Мэтт Бомер, Кевин Нэш, Эмбер Хёрд, Элизабет Бэнкс, Адам Родригес, Габриэль Иглесиас, Энди МакДауэлл, Джада Пинкетт Смит
Описание: Прошло три года после того, как Майк на пике своей популярности закончил карьеру стриптизера, а клуб «Короли Тампы» уже почти готов признать свое поражение. Но проделать это в своем стиле: готовясь «зажечь» Мёртл-Бич, они снова разделят сцену с легендарным Супер Майком. Дорога на последнее шоу проходит через Джеконсвилл и Саванну, где Майк и парни повстречают старых знакомых и заведут новых, а также выучат пару неизбитых движений, тряхнув при этом стариной.
Дополнительные материалы: The Moves of Magic Mike XXL
Меню: есть, статичное
Сэмпл
Тип релиза: DVD9
Контейнер: DVD-Video
Видео: PAL 16:9 (720x576) MPEG Video, 25,000 кадр/сек, 6112 Кбит/сек
Аудио: English (Dolby AC-3, 6 ch) 384 Кбит/сек, 48.0 КГц
Аудио 2: Czech (Dolby AC-3, 6 ch) 384 Кбит/сек, 48.0 КГц
Аудио 3: Russian (Dolby AC-3, 6 ch) 384 Кбит/сек, 48.0 КГц
Аудио 4: Ukrainian (Dolby AC-3, 6 ch) 384 Кбит/сек, 48.0 КГц
Аудио 5: English (Dolby AC-3, 2 ch) 192 Кбит/сек, 48.0 КГц, Доп. материалы

DVDInfo

Title: MAGIC_MIKE_XXL
Disk size: 6.22 Gb ( 6 520 318,00 KBytes )
DVD Type: DVD-9
Enabled regions: 1,2,3,4,5,6,7,8
VTS_01:
Title Play Length: 01:58:50
Video: PAL 16:9 (720x576) VBR,Auto Letterboxed
Audio (5):
English (Dolby AC3, 6 ch)
Czech(Ceske) (Dolby AC3, 6 ch)
Russian (Dolby AC3, 6 ch)
Ukrainian (Dolby AC3, 6 ch)
English (Dolby AC3, 2 ch)
Subtitles (9):
English
Czech(Ceske)
Estonian
Latvian
Lithuanian
Portugues
Russian
Czech(Ceske)
Russian
VTS_02:
Title Play Length: 00:00:10
Video: PAL 16:9 (720x576) VBR,Auto Letterboxed
Audio (1):
Not specified (Dolby AC3, 6 ch)
Subtitles (1):
Not specified
* Menus Information *
VIDEO_TS Menu
Video:
PAL 16:9 (720x576) VBR
Auto Pan&Scan
Audio (0)
Language Unit :
Title Menu
VTS_01 Menu
Video:
PAL 16:9 (720x576) VBR
Auto Pan&Scan
Audio (0)
English Language Unit :
Root Menu
VTS_02 Menu
Video:
NTSC 4:3 (720x480) VBR
Auto Pan&Scan, Auto Letterboxed
Audio (0)
Language Unit :
Root Menu

MediaInfo

Общее
Полное имя : MAGIC_MIKE_XXL\VIDEO_TS\VTS_01_1.VOB
Формат : MPEG-PS
Размер файла : 1024 Мбайт
Продолжительность : 18 м. 20 с.
Режим общего битрейта : Переменный
Общий поток : 7803 Кбит/сек
Видео
Идентификатор : 224 (0xE0)
Формат : MPEG Video
Версия формата : Version 2
Профиль формата : Main@Main
Настройки формата : CustomMatrix / BVOP
Параметр BVOP формата : Да
Параметр матрицы формата : Выборочная
Параметр GOP формата : Variable
Структура изображения : Frame
Продолжительность : 18 м. 20 с.
Вид битрейта : Переменный
Битрейт : 6112 Кбит/сек
Максимальный битрейт : 7500 Кбит/сек
Ширина : 720 пикселей
Высота : 576 пикселей
Соотношение сторон : 16:9
Частота кадров : 25,000 кадров/сек
Стандарт вещания : PAL
Цветовое пространство : YUV
Субдискретизация насыщенности : 4:2:0
Битовая глубина : 8 бит
Тип развёртки : Чересстрочная
Порядок развёртки : Верхнее поле первое
Метод сжатия : С потерями
Бит/(Пиксели*Кадры) : 0.589
Временной код первого кадра : 00:59:58:00
Оригинал временного кода : Group of pictures header
GOP, открыто/закрыто : Закрыто
Размер потока : 802 Мбайт (78%)
Аудио #1
Идентификатор : 189 (0xBD)-128 (0x80)
Формат : AC-3
Формат/Информация : Audio Coding 3
Режим смешивания : DVD-Video
Продолжительность : 18 м. 20 с.
Вид битрейта : Постоянный
Битрейт : 384 Кбит/сек
Каналы : 6 каналов
Расположение каналов : Front: L C R, Side: L R, LFE
Частота : 48,0 КГц
Частота кадров : 31,250 кадров/сек (1536 SPF)
Битовая глубина : 16 бит
Метод сжатия : С потерями
Размер потока : 50,4 Мбайт (5%)
ServiceKind/String : Complete Main
Аудио #2
Идентификатор : 189 (0xBD)-129 (0x81)
Формат : AC-3
Формат/Информация : Audio Coding 3
Режим смешивания : DVD-Video
Продолжительность : 18 м. 20 с.
Вид битрейта : Постоянный
Битрейт : 384 Кбит/сек
Каналы : 6 каналов
Расположение каналов : Front: L C R, Side: L R, LFE
Частота : 48,0 КГц
Частота кадров : 31,250 кадров/сек (1536 SPF)
Битовая глубина : 16 бит
Метод сжатия : С потерями
Размер потока : 50,4 Мбайт (5%)
ServiceKind/String : Complete Main
Аудио #3
Идентификатор : 189 (0xBD)-130 (0x82)
Формат : AC-3
Формат/Информация : Audio Coding 3
Режим смешивания : DVD-Video
Продолжительность : 18 м. 20 с.
Вид битрейта : Постоянный
Битрейт : 384 Кбит/сек
Каналы : 6 каналов
Расположение каналов : Front: L C R, Side: L R, LFE
Частота : 48,0 КГц
Частота кадров : 31,250 кадров/сек (1536 SPF)
Битовая глубина : 16 бит
Метод сжатия : С потерями
Размер потока : 50,4 Мбайт (5%)
ServiceKind/String : Complete Main
Аудио #4
Идентификатор : 189 (0xBD)-131 (0x83)
Формат : AC-3
Формат/Информация : Audio Coding 3
Режим смешивания : DVD-Video
Продолжительность : 18 м. 20 с.
Вид битрейта : Постоянный
Битрейт : 384 Кбит/сек
Каналы : 6 каналов
Расположение каналов : Front: L C R, Side: L R, LFE
Частота : 48,0 КГц
Частота кадров : 31,250 кадров/сек (1536 SPF)
Битовая глубина : 16 бит
Метод сжатия : С потерями
Размер потока : 50,4 Мбайт (5%)
ServiceKind/String : Complete Main
Текст #1
Идентификатор : 189 (0xBD)-32 (0x20)
Формат : RLE
Формат/Информация : Run-length encoding
Режим смешивания : DVD-Video
Текст #2
Идентификатор : 189 (0xBD)-33 (0x21)
Формат : RLE
Формат/Информация : Run-length encoding
Режим смешивания : DVD-Video
Текст #3
Идентификатор : 189 (0xBD)-34 (0x22)
Формат : RLE
Формат/Информация : Run-length encoding
Режим смешивания : DVD-Video
Текст #4
Идентификатор : 189 (0xBD)-35 (0x23)
Формат : RLE
Формат/Информация : Run-length encoding
Режим смешивания : DVD-Video
Текст #5
Идентификатор : 189 (0xBD)-36 (0x24)
Формат : RLE
Формат/Информация : Run-length encoding
Режим смешивания : DVD-Video
Текст #6
Идентификатор : 189 (0xBD)-37 (0x25)
Формат : RLE
Формат/Информация : Run-length encoding
Режим смешивания : DVD-Video
Текст #7
Идентификатор : 189 (0xBD)-38 (0x26)
Формат : RLE
Формат/Информация : Run-length encoding
Режим смешивания : DVD-Video

Скриншоты меню

Скриншоты

Скриншоты доп. материалов



Display posts:    

Current time is: 29-Jan 15:22

All times are UTC ± 0


You cannot post new topics in this forum
You cannot reply to topics in this forum
You cannot edit your posts in this forum
You cannot delete your posts in this forum
You cannot vote in polls in this forum
You cannot attach files in this forum
You cannot download files in this forum

!ATTENTION!
The site does not give electronic versions of products, and is engaged only in a collecting and cataloguing of the references sent and published at a forum by our readers. If you are the legal owner of any submitted material and do not wish that the reference to it was in our catalogue, contact us and we shall immediately remove her. Files for an exchange on tracker are given by users of a site, and the administration does not bear the responsibility for their maintenance. The request to not fill in the files protected by copyrights, and also files of the illegal maintenance!