Важное объявление!
У Нас Все раздачи мультитрекерные, при нуле пиров в релизах, можете смело вставать на закачку!
 
Автор Сообщение

HUNTER

Стаж:
4 года 4 месяца
Сообщений:
56790

Репутация: 101

[+] [-]
Вне форума [Профиль] [ЛС]

Starперцы / Last Vegas
Страна: США
Жанр: комедия, драма
Год выпуска: 2013
Продолжительность: 01:40:43
Перевод: Профессиональный (дублированный) [Лицензия]
Cубтитры: нет
Оригинальная аудиодорожка: нет
Режиссер: Джон Тёртелтауб / Jon Turteltaub
В ролях: Майкл Дуглас, Роберт Де Ниро, Морган Фриман, Кевин Клайн, Мэри Стинберген, Джерри Феррара, Романи Малко, Роджер Барт, Джоанна Глисон, Майкл Или...
Описание: Билли, Пэдди, Арчи и Сэм дружат больше полувека. И когда убежденный холостяк Билли наконец-то делает предложение своей юной подружке, великолепная четверка отправляется в Лас-Вегас, чтобы скинуть с себя груз прожитого и зажечь как в последний раз. Великовозрастные гуляки и не подозревают, как за десятилетия эволюционировал Город Грехов…
Бонусы: нет
Меню: русское, статичное, озвученное
Тип релиза: DVD5 (Сжатый)
Контейнер: DVD-Video
Видео: PAL 16:9 (720x576) 5 658 Kbps
Аудио: Russian (Dolby AC3, 6 ch) 448 Kbps

Доп. информация
Обработано в DVDRemake Pro.
Видео сжималось 8%.
Сжималось связкой DVD Rebuilder + CCE/Procoder в 5 проходов.
Лог кодирования
[08:11:01] Phase I, PREPARATION started.
- DVD-RB v1.28.2
- AVISYNTH 2.5.8.0
- CCE 1.0.1.9 encoder selected.
- Source: STARPERTSY.2013.DVD5
- VTS_03: 2 404 888 sectors.
-- Scanning and writing .D2V & .AVS files
-- Processed 151 090 frames.
-- Building .AVS and .ECL files
- Reduction Level for DVD-5: 92,2%
- Overall Bitrate : 5 563Kbs
- Space for Video : 4 104 022KB
- HIGH/LOW/TYPICAL Bitrates: 5 626/4 642/5 563 Kbs
[08:12:00] Phase I, PREPARATION completed in 1 minutes.
- WARNING: Viewer/Editor settings are over target.
[08:13:24] Phase II ENCODING started
- Creating M2V for VTS_03 segment 0
- Creating M2V for VTS_03 segment 1
- Creating M2V for VTS_03 segment 2
- Creating M2V for VTS_03 segment 3
- Creating M2V for VTS_03 segment 4
- Creating M2V for VTS_03 segment 5
- Creating M2V for VTS_03 segment 6
- Creating M2V for VTS_03 segment 7
- Creating M2V for VTS_03 segment 8
[09:07:59] Phase II ENCODING completed in 54 minutes.
[09:08:06] Phase III, REBUILD started.
- Copying IFO, BUP, and unaltered files...
- Processing VTS_03
- Reading/processing TMAP table...
- Rebuilding seg 0 VOBID 1 CELLID 1
- Rebuilding seg 1 VOBID 1 CELLID 2
- Rebuilding seg 2 VOBID 1 CELLID 3
- Rebuilding seg 3 VOBID 1 CELLID 4
- Rebuilding seg 4 VOBID 1 CELLID 5
- Rebuilding seg 5 VOBID 1 CELLID 6
- Rebuilding seg 6 VOBID 1 CELLID 7
- Rebuilding seg 7 VOBID 1 CELLID 8
- Rebuilding seg 8 VOBID 1 CELLID 9
- Updating NAVPACKS for VOBID_01
- Updated VTS_C_ADT.
- Updated VTS_VOBU_ADMAP.
- Updated IFO: VTS_03_0.IFO
- Updating TMAP table...
- Correcting VTS Sectors...
[09:25:37] Phase III, REBUILD completed in 17 minutes.
Done.
MediaInfo
General
Complete name : D:\_Video\Starpertsy.2013.DVD5\VIDEO_TS\VTS_03_1.VOB
Format : MPEG-PS
File size : 1 024 MiB
Duration : 22mn 58s
Overall bit rate : 6 230 Kbps
Video
ID : 224 (0xE0)
Format : MPEG Video
Format version : Version 2
Format profile : Main@Main
Format settings, BVOP : Yes
Format settings, Matrix : Custom
Duration : 22mn 58s
Bit rate mode : Variable
Bit rate : 5 658 Kbps
Maximum bit rate : 9 000 Kbps
Width : 720 pixels
Height : 576 pixels
Display aspect ratio : 16:9
Frame rate : 25.000 fps
Standard : PAL
Color space : YUV
Chroma subsampling : 4:2:0
Bit depth : 8 bits
Scan type : Progressive
Scan order : Bottom Field First
Compression mode : Lossy
Bits/(Pixel*Frame) : 0.546
Stream size : 930 MiB (91%)
Audio
ID : 189 (0xBD)-128 (0x80)
Format : AC-3
Format/Info : Audio Coding 3
Mode extension : CM (complete main)
Muxing mode : DVD-Video
Duration : 22mn 58s
Bit rate mode : Constant
Bit rate : 448 Kbps
Channel(s) : 6 channels
Channel positions : Front: L C R, Side: L R, LFE
Sampling rate : 48.0 KHz
Bit depth : 16 bits
Compression mode : Lossy
Stream size : 73.6 MiB (7%)
Menu
DVDInfo
Title: Bob
Size: 4.36 Gb ( 4 569 632 KBytes ) - DVD-5
Enabled regions: 1, 2, 3, 4, 5, 6, 7, 8
VTS_01 :
Play Length:
Video: PAL 4:3 (720x576) VBR
Audio:
Not specified (Dolby AC3, 2 ch)
VTS_02 :
Play Length:
Video: PAL 16:9 (720x576) VBR, Auto Pan&Scan
Audio:
Not specified (Dolby AC3, 2 ch)
VTS_03 :
Play Length: 01:40:43
Video: PAL 16:9 (720x576) VBR, Auto Pan&Scan
Audio:
Russian (Dolby AC3, 6 ch)
Cкриншот финального проектаСкриншоты менюСкриншотыРаздача от группы:

_________________
Показать сообщения:    

Текущее время: Сегодня 16:51

Часовой пояс: GMT



Вы не можете начинать темы
Вы не можете отвечать на сообщения
Вы не можете редактировать свои сообщения
Вы не можете удалять свои сообщения
Вы не можете голосовать в опросах
Вы не можете прикреплять файлы к сообщениям
Вы не можете скачивать файлы