Ивановский Торрент трекер
Яндекс.Погода
DL-List and Torrent activity
None
 
     
 
 

[Quote]
HUNTER

Стань легендой! Бигфут Младший
The Son of Bigfoot
Страна: Франция, Бельгия
Жанр: мультфильм, фэнтези, комедия, семейный
Год выпуска: 2017
Продолжительность: 01:31:15
Перевод: Профессиональный (полное дублирование) [Blu-ray RUS]
Субтитры: нет
Оригинальная аудиодорожка: нет
Режиссер: Жереми Дегрусон / Jeremy Degruson, Бен Стассен / Ben Stassen
В ролях: Синда Адамс, Джордж Бэббит, Лайла Берзиньш, Джои Камен, Джефф Дусетте, Дэвид Эпштейн, Паппи Фолкнер, Сэнди Фокс, Кайл Хеберт, Мариев Херингтон, Алексис Лэнг, Юрий Ловенталь
Описание:
Обычный подросток по имени Адам отправляется на поиски своего давно пропавшего отца и попадает в приключение мифических масштабов. Его мир переворачивается вверх дном, когда оказывается, что в нем течет кровь последних легендарных хранителей леса - бигфутов. Теперь ему открыты такие способности как суперскорость, живительное прикосновение и возможность понимать язык животных.

Автор рипа: stalkerok
Сэмпл
Качество видео: BDRip-AVC [The Son of Bigfoot (2017) Blu-ray Disc [RUS] -BLUEBIRD]
Формат видео: MKV
Видео: 1078 Кбит/сек, 788*330 (2.40:1), 24 кадр/сек, AVC
Аудио: русский, 64,0 Кбит/сек, 48,0 КГц / 24,0 КГц, 2 канала, AAC (HE-AAC / LC)
Навигация по главам: есть

Сравнение Blu-ray (16:9) vs Blu-ray RUS (2.40:1)

Blu-ray (16:9)

Blu-ray RUS (2.40:1)

x264/MediaInfo

---[Information] [23.01.2018 1:35:49] x264 [info]: frame I:1245 Avg QP:17.64 size: 52559
---[Information] [23.01.2018 1:35:49] x264 [info]: frame P:33985 Avg QP:21.49 size: 10767
---[Information] [23.01.2018 1:35:49] x264 [info]: frame B:96177 Avg QP:23.19 size: 3186
Общее
Уникальный идентификатор : 203631581216305327035036209960793728393 (0x99320417D68D0B708D136D8D8C7CE589)
Полное имя : M:\$new\The Son of Bigfoot (2017)\The.Son.of.Bigfoot.2017.BDRip-AVC.RUS..stalkerok.new-team.mkv
Формат : Matroska
Версия формата : Version 4 / Version 2
Размер файла : 747 Мбайт
Продолжительность : 1 ч. 31 м.
Общий поток : 1144 Кбит/сек
Название фильма : The Son of Bigfoot (2017) (Rip by stalkerok)
Дата кодирования : UTC 2018-01-23 06:00:01
Программа кодирования : mkvmerge v8.6.1 ('Flying') 64bit
Библиотека кодирования : libebml v1.3.3 + libmatroska v1.4.4
Видео
Идентификатор : 1
Формат : AVC
Формат/Информация : Advanced Video Codec
Профиль формата : High@L4.1
Параметр CABAC формата : Да
Параметр ReFrames формата : 16 кадров
Идентификатор кодека : V_MPEG4/ISO/AVC
Продолжительность : 1 ч. 31 м.
Битрейт : 1078 Кбит/сек
Ширина : 788 пикселей
Высота : 330 пикселей
Соотношение сторон : 2,40:1
Режим частоты кадров : Постоянный
Частота кадров : 24,000 кадра/сек
Цветовое пространство : YUV
Субдискретизация насыщенности : 4:2:0
Битовая глубина : 8 бит
Тип развёртки : Прогрессивная
Бит/(Пиксели*Кадры) : 0.173
Размер потока : 704 Мбайт (94%)
Заголовок : The Son of Bigfoot (2017) (Rip by stalkerok)
Библиотека кодирования : x264 core 152 r2851kMod ba24899
Настройки программы : cabac=1 / ref=16 / deblock=1:-3:-2 / analyse=0x3:0x133 / me=umh / subme=11 / psy=1 / fade_compensate=0.00 / psy_rd=1.00:0.00 / mixed_ref=1 / me_range=32 / chroma_me=1 / trellis=2 / 8x8dct=1 / cqm=0 / deadzone=21,11 / fast_pskip=0 / chroma_qp_offset=-2 / threads=10 / lookahead_threads=2 / sliced_threads=0 / nr=0 / decimate=0 / interlaced=0 / bluray_compat=0 / constrained_intra=0 / bframes=16 / b_pyramid=2 / b_adapt=2 / b_bias=0 / direct=3 / weightb=1 / open_gop=0 / weightp=2 / keyint=240 / keyint_min=23 / scenecut=40 / intra_refresh=0 / rc_lookahead=60 / rc=2pass / mbtree=0 / bitrate=1078 / ratetol=1.0 / qcomp=0.65 / qpmin=0 / qpmax=69 / qpstep=4 / cplxblur=20.0 / qblur=0.5 / vbv_maxrate=50000 / vbv_bufsize=62500 / nal_hrd=none / filler=0 / ip_ratio=1.40 / pb_ratio=1.30 / aq=3:0.95 / zones=127983,131406,q=36
Default : Да
Forced : Нет
Аудио
Идентификатор : 2
Формат : AAC
Формат/Информация : Advanced Audio Codec
Профиль формата : HE-AAC / LC
Идентификатор кодека : A_AAC
Продолжительность : 1 ч. 31 м.
Битрейт : 64,0 Кбит/сек
Каналы : 2 канала
Расположение каналов : Front: L R
Частота : 48,0 КГц / 24,0 КГц
Частота кадров : 23,438 кадра/сек (1024 spf)
Метод сжатия : С потерями
Задержка видео : 31 мс.
Размер потока : 41,8 Мбайт (6%)
Язык : Russian
Default : Да
Forced : Нет
Меню
00:00:00.000 : en:Chapter 1
00:00:25.708 : en:Chapter 2
00:09:52.250 : en:Chapter 3
00:20:05.625 : en:Chapter 4
00:31:35.750 : en:Chapter 5
00:42:31.458 : en:Chapter 6
00:55:00.166 : en:Chapter 7
01:03:24.041 : en:Chapter 8
01:16:09.833 : en:Chapter 9

Скриншоты



Display posts:    

Current time is: 22-Jan 03:12

All times are UTC ± 0


You cannot post new topics in this forum
You cannot reply to topics in this forum
You cannot edit your posts in this forum
You cannot delete your posts in this forum
You cannot vote in polls in this forum
You cannot attach files in this forum
You cannot download files in this forum

!ATTENTION!
The site does not give electronic versions of products, and is engaged only in a collecting and cataloguing of the references sent and published at a forum by our readers. If you are the legal owner of any submitted material and do not wish that the reference to it was in our catalogue, contact us and we shall immediately remove her. Files for an exchange on tracker are given by users of a site, and the administration does not bear the responsibility for their maintenance. The request to not fill in the files protected by copyrights, and also files of the illegal maintenance!