Ивановский Торрент трекер
Яндекс.Погода
 

[Quote]
HUNTER

Стань легендой! Бигфут Младший
The Son of Bigfoot
Страна: Франция, Бельгия
Жанр: мультфильм, фэнтези, комедия, семейный
Год выпуска: 2017
Продолжительность: 01:31:15
Перевод: Профессиональный (полное дублирование) [Blu-ray RUS]
Субтитры: английские (полные, SDH)
Оригинальная аудиодорожка: английский
Режиссер: Жереми Дегрусон / Jeremy Degruson, Бен Стассен / Ben Stassen
В ролях: Синда Адамс, Джордж Бэббит, Лайла Берзиньш, Джои Камен, Джефф Дусетте, Дэвид Эпштейн, Паппи Фолкнер, Сэнди Фокс, Кайл Хеберт, Мариев Херингтон, Алексис Лэнг, Юрий Ловенталь
Описание:
Обычный подросток по имени Адам отправляется на поиски своего давно пропавшего отца и попадает в приключение мифических масштабов. Его мир переворачивается вверх дном, когда оказывается, что в нем течет кровь последних легендарных хранителей леса - бигфутов. Теперь ему открыты такие способности как суперскорость, живительное прикосновение и возможность понимать язык животных.

Автор рипа: stalkerok
Сэмпл
Качество видео: BDRip-AVC [The Son of Bigfoot (2017) Blu-ray Disc [RUS] -BLUEBIRD]
Формат видео: MKV
Видео: 2527 Кбит/сек, 1152*482 (2.40:1), 24 кадр/сек, AVC
Аудио #1: русский, 448 Кбит/сек, 48 КГц, 5.1, AC3
Аудио #2: английский, 448 Кбит/сек, 48 КГц, 5.1, AC3
Навигация по главам: есть

Сравнение Blu-ray (16:9) vs Blu-ray RUS (2.40:1)

Blu-ray (16:9)

Blu-ray RUS (2.40:1)

x264/MediaInfo

---[Information] [22.01.2018 21:54:17] x264 [info]: frame I:1262 Avg QP:16.59 size: 97503
---[Information] [22.01.2018 21:54:17] x264 [info]: frame P:34875 Avg QP:18.63 size: 25192
---[Information] [22.01.2018 21:54:17] x264 [info]: frame B:95270 Avg QP:21.38 size: 7637
Общее
Уникальный идентификатор : 236351633030117539618894919456681598437 (0xB1CFAB32EBF108F08E6ABF3AF55F9DE5)
Полное имя : M:\$new\The Son of Bigfoot (2017)\The.Son.of.Bigfoot.2017.BDRip-AVC.RUS.ENG.stalkerok.new-team.mkv
Формат : Matroska
Версия формата : Version 4 / Version 2
Размер файла : 2,18 Гбайт
Продолжительность : 1 ч. 31 м.
Общий поток : 3425 Кбит/сек
Название фильма : The Son of Bigfoot (2017) (Rip by stalkerok)
Дата кодирования : UTC 2018-01-22 18:56:50
Программа кодирования : mkvmerge v8.6.1 ('Flying') 64bit
Библиотека кодирования : libebml v1.3.3 + libmatroska v1.4.4
Видео
Идентификатор : 5
Формат : AVC
Формат/Информация : Advanced Video Codec
Профиль формата : [email protected]
Параметр CABAC формата : Да
Параметр ReFrames формата : 14 кадров
Идентификатор кодека : V_MPEG4/ISO/AVC
Продолжительность : 1 ч. 31 м.
Битрейт : 2527 Кбит/сек
Ширина : 1152 пикселя
Высота : 482 пикселя
Соотношение сторон : 2,40:1
Режим частоты кадров : Постоянный
Частота кадров : 24,000 кадра/сек
Цветовое пространство : YUV
Субдискретизация насыщенности : 4:2:0
Битовая глубина : 8 бит
Тип развёртки : Прогрессивная
Бит/(Пиксели*Кадры) : 0.190
Размер потока : 1,61 Гбайт (74%)
Заголовок : The Son of Bigfoot (2017) (Rip by stalkerok)
Библиотека кодирования : x264 core 152 r2851kMod ba24899
Настройки программы : cabac=1 / ref=14 / deblock=1:-3:-2 / analyse=0x3:0x133 / me=umh / subme=11 / psy=1 / fade_compensate=0.00 / psy_rd=1.00:0.00 / mixed_ref=1 / me_range=32 / chroma_me=1 / trellis=2 / 8x8dct=1 / cqm=0 / deadzone=21,11 / fast_pskip=0 / chroma_qp_offset=-2 / threads=12 / lookahead_threads=3 / sliced_threads=0 / nr=0 / decimate=1 / interlaced=0 / bluray_compat=0 / constrained_intra=0 / bframes=14 / b_pyramid=2 / b_adapt=2 / b_bias=0 / direct=3 / weightb=1 / open_gop=0 / weightp=2 / keyint=240 / keyint_min=23 / scenecut=40 / intra_refresh=0 / rc_lookahead=60 / rc=crf / mbtree=0 / crf=17.6000 / qcomp=0.65 / qpmin=0 / qpmax=69 / qpstep=4 / vbv_maxrate=50000 / vbv_bufsize=62500 / crf_max=0.0 / nal_hrd=none / filler=0 / ip_ratio=1.40 / pb_ratio=1.30 / aq=3:0.80 / zones=127983,131406,q=35
Default : Да
Forced : Нет
Аудио #1
Идентификатор : 1
Формат : AC-3
Формат/Информация : Audio Coding 3
Расширение режима : CM (complete main)
Параметр Endianness формата : Big
Идентификатор кодека : A_AC3
Продолжительность : 1 ч. 31 м.
Вид битрейта : Постоянный
Битрейт : 448 Кбит/сек
Каналы : 6 каналов
Расположение каналов : Front: L C R, Side: L R, LFE
Частота : 48,0 КГц
Частота кадров : 31,250 кадров/сек (1536 spf)
Метод сжатия : С потерями
Размер потока : 292 Мбайт (13%)
Язык : Russian
Default : Да
Forced : Нет
Аудио #2
Идентификатор : 2
Формат : AC-3
Формат/Информация : Audio Coding 3
Расширение режима : CM (complete main)
Параметр Endianness формата : Big
Идентификатор кодека : A_AC3
Продолжительность : 1 ч. 31 м.
Вид битрейта : Постоянный
Битрейт : 448 Кбит/сек
Каналы : 6 каналов
Расположение каналов : Front: L C R, Side: L R, LFE
Частота : 48,0 КГц
Частота кадров : 31,250 кадров/сек (1536 spf)
Метод сжатия : С потерями
Размер потока : 292 Мбайт (13%)
Язык : English
Default : Нет
Forced : Нет
Текст #1
Идентификатор : 3
Формат : UTF-8
Идентификатор кодека : S_TEXT/UTF8
Идентификатор кодека/Информация : UTF-8 Plain Text
Продолжительность : 1 ч. 26 м.
Битрейт : 57 бит/сек
Count of elements : 1254
Размер потока : 36,8 Кбайт (0%)
Язык : English
Default : Нет
Forced : Нет
Текст #2
Идентификатор : 4
Формат : UTF-8
Идентификатор кодека : S_TEXT/UTF8
Идентификатор кодека/Информация : UTF-8 Plain Text
Продолжительность : 1 ч. 31 м.
Битрейт : 72 бит/сек
Count of elements : 1691
Размер потока : 48,3 Кбайт (0%)
Заголовок : SDH
Язык : English
Default : Нет
Forced : Нет
Меню
00:00:00.000 : en:Chapter 1
00:00:25.708 : en:Chapter 2
00:09:52.250 : en:Chapter 3
00:20:05.625 : en:Chapter 4
00:31:35.750 : en:Chapter 5
00:42:31.458 : en:Chapter 6
00:55:00.166 : en:Chapter 7
01:03:24.041 : en:Chapter 8
01:16:09.833 : en:Chapter 9

Скриншоты



Display posts:    

Current time is: 11-Aug 00:38

All times are UTC ± 0


You cannot post new topics in this forum
You cannot reply to topics in this forum
You cannot edit your posts in this forum
You cannot delete your posts in this forum
You cannot vote in polls in this forum
You cannot attach files in this forum
You cannot download files in this forum

!ATTENTION!
The site does not give electronic versions of products, and is engaged only in a collecting and cataloguing of the references sent and published at a forum by our readers. If you are the legal owner of any submitted material and do not wish that the reference to it was in our catalogue, contact us and we shall immediately remove her. Files for an exchange on tracker are given by users of a site, and the administration does not bear the responsibility for their maintenance. The request to not fill in the files protected by copyrights, and also files of the illegal maintenance!