Важное объявление!
У Нас Все раздачи мультитрекерные, при нуле пиров в релизах, можете смело вставать на закачку!
 
Автор Сообщение

HUNTER

Стаж:
4 года 4 месяца
Сообщений:
56808

Репутация: 101

[+] [-]
Вне форума [Профиль] [ЛС]

Shock Therapy Vol. 1
Жанр: Speedcore, Hardcore, Gabber
Страна-производитель диска: Germany
Год издания: 1997
Издатель (лейбл): Shockwave Recordings
Номер по каталогу: SH-9999
Аудиокодек: FLAC (*.flac)
Тип рипа: image+.cue
Битрейт аудио: lossless
Продолжительность: 01:12:14
Источник (релизер): свой рип
Наличие сканов в содержимом раздачи: да
Треклист:
01. The Speed Freak - Let The Attack Begin! [06:29]
02. DJ Vibe-Raider - Make Da Floor Burn [04:59]
03. The Noize Junkie - I Am Not A Number [04:10]
04. Wendy Milan - Who Dies Tonight, Bitch? [05:27]
05. B.C. Kid - Slags On Heat [05:51]
06. The Shapeshifter - Fuck-Shoppin' [05:15]
07. Kenny Gee - Don't Be A Pussy [04:08]
08. Bazooka - Evil Empire [07:07]
09. Random Rampage - M's Pussy [04:29]
10. Psyche Out - Mind Terrorist [04:32]
11. Biochip C. - Stop Makin' Sense [04:46]
12. S.C.U.M. - Motherfuckin' Real Speed [04:29]
13. Sonic Overkill - Livin' On Speed [03:25]
14. Berzerker, The - Freedom [04:35]
15. DJ Fistfuck - T.B.'s Gehirnamputation (Operation Mordcore) [02:24]

Лог создания рипа

Exact Audio Copy V1.0 beta 3 from 29. August 2011
EAC extraction logfile from 24. May 2012, 19:45
Various / Shock Therapy
Used drive : PLEXTOR DVDR PX-755A Adapter: 0 ID: 1
Read mode : SecureUtilize accurate stream : YesDefeat audio cache : YesMake use of C2 pointers : No
Read offset correction : 30Overread into Lead-In and Lead-Out : YesFill up missing offset samples with silence : YesDelete leading and trailing silent blocks : NoNull samples used in CRC calculations : YesUsed interface : Native Win32 interface for Win NT & 2000
Used output format : User Defined EncoderSelected bitrate : 128 kBit/sQuality : HighAdd ID3 tag : NoCommand line compressor : C:\Program Files (x86)\Exact Audio Copy\Flac\flac.exeAdditional command line options : -V -8 -T "Date=%year%" -T "COMMENT=ripped by Andy aka yetiisyou" -T "Genre=%genre%" %source%
TOC of the extracted CD
Track | Start | Length | Start sector | End sector --------------------------------------------------------- 1 | 0:00.00 | 6:29.00 | 0 | 29174 2 | 6:29.00 | 4:59.50 | 29175 | 51649 3 | 11:28.50 | 4:10.45 | 51650 | 70444 4 | 15:39.20 | 5:27.55 | 70445 | 95024 5 | 21:07.00 | 5:51.25 | 95025 | 121374 6 | 26:58.25 | 5:15.62 | 121375 | 145061 7 | 32:14.12 | 4:08.25 | 145062 | 163686 8 | 36:22.37 | 7:07.53 | 163687 | 195764 9 | 43:30.15 | 4:29.60 | 195765 | 215999 10 | 48:00.00 | 4:32.42 | 216000 | 236441 11 | 52:32.42 | 4:46.55 | 236442 | 257946 12 | 57:19.22 | 4:29.53 | 257947 | 278174 13 | 61:49.00 | 3:25.30 | 278175 | 293579 14 | 65:14.30 | 4:35.52 | 293580 | 314256 15 | 69:50.07 | 2:24.68 | 314257 | 325124
Range status and errors
Selected range
Filename E:\!Rips\VA - Shock Therapy Vol. 1 [SH-9999] [1997]\Various - Shock Therapy.wav
Peak level 100.0 % Extraction speed 2.5 X Range quality 100.0 % Test CRC 0B67513F Copy CRC 0B67513F Copy OK
No errors occurred
AccurateRip summary
Track 1 not present in databaseTrack 2 not present in databaseTrack 3 not present in databaseTrack 4 not present in databaseTrack 5 not present in databaseTrack 6 not present in databaseTrack 7 not present in databaseTrack 8 not present in databaseTrack 9 not present in databaseTrack 10 not present in databaseTrack 11 not present in databaseTrack 12 not present in databaseTrack 13 not present in databaseTrack 14 not present in databaseTrack 15 not present in database
None of the tracks are present in the AccurateRip database
End of status report
---- CUETools DB Plugin V2.1.3
[CTDB TOCID: fIPd5nKUQv6SVCJ.kXEhd3mAK1E-] disk not present in database, Submit result: fIPd5nKUQv6SVCJ.kXEhd3mAK1E- has been uploaded
==== Log checksum BE43D2D9BD972E123A55A31FBDF4010B5A91470DD91B1E3AE5016123C89BDFE6 ====

Содержание индексной карты (.CUE)

REM GENRE "Speedcore, Hardcore, Gabber "REM DATE 1997REM DISCID D010EF0FREM COMMENT "ExactAudioCopy v1.0b3"PERFORMER "Various"TITLE "Shock Therapy"FILE "Various - Shock Therapy.flac" WAVE TRACK 01 AUDIO TITLE "Let The Attack Begin!" PERFORMER "The Speed Freak" INDEX 01 00:00:00 TRACK 02 AUDIO TITLE "Make Da Floor Burn" PERFORMER "DJ Vibe-Raider" INDEX 01 06:29:00 TRACK 03 AUDIO TITLE "I Am Not A Number" PERFORMER "The Noize Junkie" INDEX 01 11:28:50 TRACK 04 AUDIO TITLE "Who Dies Tonight, Bitch?" PERFORMER "Wendy Milan" INDEX 01 15:39:20 TRACK 05 AUDIO TITLE "Slags On Heat" PERFORMER "B.C. Kid" INDEX 01 21:07:00 TRACK 06 AUDIO TITLE "Fuck-Shoppin'" PERFORMER "The Shapeshifter" INDEX 01 26:58:25 TRACK 07 AUDIO TITLE "Don't Be A Pussy" PERFORMER "Kenny Gee" INDEX 01 32:14:12 TRACK 08 AUDIO TITLE "Evil Empire" PERFORMER "Bazooka" INDEX 01 36:22:37 TRACK 09 AUDIO TITLE "M's Pussy" PERFORMER "Random Rampage" INDEX 01 43:30:15 TRACK 10 AUDIO TITLE "Mind Terrorist" PERFORMER "Psyche Out" INDEX 01 48:00:00 TRACK 11 AUDIO TITLE "Stop Makin' Sense" PERFORMER "Biochip C." INDEX 01 52:32:42 TRACK 12 AUDIO TITLE "Motherfuckin' Real Speed" PERFORMER "S.C.U.M." INDEX 01 57:19:22 TRACK 13 AUDIO TITLE "Livin' On Speed" PERFORMER "Sonic Overkill" INDEX 01 61:49:00 TRACK 14 AUDIO TITLE "Freedom" PERFORMER "Berzerker, The" INDEX 01 65:14:30 TRACK 15 AUDIO TITLE "T.B.'s Gehirnamputation (Operation Mordcore)" PERFORMER "DJ Fistfuck" INDEX 01 69:50:07


_________________
Показать сообщения:    

Текущее время: Сегодня 11:59

Часовой пояс: GMT



Вы не можете начинать темы
Вы не можете отвечать на сообщения
Вы не можете редактировать свои сообщения
Вы не можете удалять свои сообщения
Вы не можете голосовать в опросах
Вы не можете прикреплять файлы к сообщениям
Вы не можете скачивать файлы