Важное объявление!
У Нас Все раздачи мультитрекерные, при нуле пиров в релизах, можете смело вставать на закачку!
 
Автор Сообщение

HUNTER

Стаж:
4 года 4 месяца
Сообщений:
56822

Репутация: 101

[+] [-]
Вне форума [Профиль] [ЛС]

Last Speed Seduction 5.0 Rapid And Total Success With Women
Год выпуска: 2015
Производитель: Speed Seduction
Сайт производителя: www.seduction.com/rossteaches/speed-seduction-rapid-and-total-success-with-women/
Автор: Ross Jeffries
Продолжительность: 10+ hours
Тип раздаваемого материала: Видеоурок
Язык: Английский
Описание: В каждой из этих курсов , я беру тебя за руку , и шаг за шагом раскрывают точную план для вас, чтобы следовать, чтобы быстро быть постельные принадлежности вид женщин , которые сделают ваши лучшие друзья слюни от зависти.
В том числе видео, которые варенье упакован с обольщения обучение необходимо получить пожизненный навык встречи , привлечения, соблазнения и спать с красивыми женщинами во всем мире !

Содержание

  • Introduction To Language Patterns
  • Introduction To Walkups/Meet Women Autopilot
  • Introduction To Inner Game Basics
  • Sexual Aggression Mastery: The Sexually Forward Male
  • Showing Up Attractive (sometimes, before you say one word)
Файлы примеров: отсутствуют
Формат видео: MP4
контейнер: ISO
Видео: AVC, 1280x720, 16:9, 24.000 fps, ~ 3209 Kbps
Аудио: AAC, 48.0 KHz, ~ 124.0 Kbps, 2 channels

Media Info

Format : MPEG-4
Format profile : Base Media / Version 2
Codec ID : mp42
File size : 130 MiB
Duration : 5mn 26s
Overall bit rate : 3 339 Kbps
Encoded date : UTC 2015-03-21 04:58:30
Tagged date : UTC 2015-03-21 04:58:30
Writing library : AVS
Video
ID : 1
Format : AVC
Format/Info : Advanced Video Codec
Format profile : Main@L3.0
Format settings, CABAC : Yes
Format settings, ReFrames : 2 frames
Codec ID : avc1
Codec ID/Info : Advanced Video Coding
Duration : 5mn 26s
Bit rate : 3 209 Kbps
Width : 1 280 pixels
Height : 720 pixels
Display aspect ratio : 16:9
Frame rate mode : Constant
Frame rate : 24.000 fps
Color space : YUV
Chroma subsampling : 4:2:0
Bit depth : 8 bits
Scan type : Progressive
Bits/(Pixel*Frame) : 0.145
Stream size : 125 MiB (96%)
Language : English
Encoded date : UTC 2015-03-21 04:58:30
Tagged date : UTC 2015-03-21 04:58:30
Color primaries : BT.709
Transfer characteristics : BT.709
Matrix coefficients : BT.709
mdhd_Duration : 326583
Audio
ID : 2
Format : AAC
Format/Info : Advanced Audio Codec
Format profile : LC
Codec ID : 40
Duration : 5mn 26s
Bit rate mode : Constant
Bit rate : 124 Kbps
Nominal bit rate : 320 Kbps
Channel(s) : 2 channels
Channel positions : Front: L R
Sampling rate : 48.0 KHz
Compression mode : Lossy
Stream size : 4.82 MiB (4%)
Language : English
Encoded date : UTC 2015-03-21 04:58:30
Tagged date : UTC 2015-03-21 04:58:30

Скриншоты

Описание на английском языке

In each one of these courses, I take you by the hand, and step-by-step reveal the exact blueprint for you to follow to swiftly be bedding the kind of women that will make your best friends drool with envy.
Including videos that are jam packed with the seduction training you need to get the life long skill of meeting, attracting, seducing and sleeping with beautiful women everywhere!
Extra Info: English: I uploaded the program as ISO because it consists 1268 files in 48 folders with long file names. And you know when a destination file gets larger than 50 character path name on windows, it can not be played or stored without renaming it and that is a lot of work to do.-Russian: Я загрузил программу, как ISO , так как она состоит 1268 файлов в 48 папок с длинными именами файлов. И вы знаете, когдафайл назначения получает путь больше, чем 50 символов на окнах , не могут быть воспроизведены или хранящихся без переименования , и этомного работы, чтобы сделать

_________________
Показать сообщения:    

Текущее время: Сегодня 05:12

Часовой пояс: GMT



Вы не можете начинать темы
Вы не можете отвечать на сообщения
Вы не можете редактировать свои сообщения
Вы не можете удалять свои сообщения
Вы не можете голосовать в опросах
Вы не можете прикреплять файлы к сообщениям
Вы не можете скачивать файлы