Ивановский Торрент трекер
Яндекс.Погода
DL-List and Torrent activity
None
 
     
 
 

[Quote]
HUNTER

Спасатели / Wan ou qi bing / T-Guardians / Toy Guardians
Страна: Китай
Жанр: мультфильм, приключения, детский
Год выпуска: 2017
Продолжительность: 01:27:53-Перевод: Профессиональный (дублированный) | Позитив
Субтитры: нет
Оригинальная аудиодорожка: нет-Режиссер:
Шэнь Юй / Yu Shen, Хуан Янь / Yan Huang-В ролях:
Ян Личжэнь, Ли Е, Ван Хэн, Ли Чуаньин, Чжоу Наньфэй-Описание: Приятелей Тигра и Зубастика ждут невероятные виртуальные приключения, в которых им предстоит проверить свою дружбу на прочность. Справятся ли они в череде опасностей? Выбраться обратно в реальный мир вместе со своей любимой хозяйкой и заслужить почетное звание «Спасатель» они смогут, только бесстрашно поддерживая друг друга, при помощи смекалки и находчивости преодолевая препятствия.- -Качество видео: WEB-DL 1080p
Формат видео: MKV
Видео: 1920x800 (2.40:1), 24.000 fps, AVC, 5120 Кбит/сек
Аудио: Russian, 48.0 KHz, AAC LC, 6 ch, 512 Кбит/сек-[box]Сэмпл[/box]-

MediaInfo

Код:Формат : Matroska
Версия формата : Version 4
Размер файла : 3,45 Гбайт
Продолжительность : 1 ч. 27 м.
Общий поток : 5627 Кбит/сек
Дата кодирования : UTC 2019-11-19 15:40:15
Программа кодирования : mkvmerge v40.0.0 ('Old Town Road + Pony') 64-bit
Библиотека кодирования : libebml v1.3.9 + libmatroska v1.5.2
Видео
Идентификатор : 1
Формат : AVC
Формат/Информация : Advanced Video Codec
Профиль формата : High@L4
Настройки формата : CABAC / 4 Ref Frames
Параметр CABAC формата : Да
Параметр RefFrames формата : 4 кадра
Идентификатор кодека : V_MPEG4/ISO/AVC
Продолжительность : 1 ч. 27 м.
Битрейт : 5120 Кбит/сек
Ширина : 1920 пикселей
Высота : 800 пикселей
Соотношение сторон : 2,40:1
Режим частоты кадров : Постоянный
Частота кадров : 24,000 кадра/сек
Цветовое пространство : YUV
Субдискретизация насыщенности : 4:2:0
Битовая глубина : 8 бит
Тип развёртки : Прогрессивная
Бит/(Пиксели*Кадры) : 0.139
Размер потока : 3,14 Гбайт (91%)
Библиотека кодирования : x264 core 148
Настройки программы : cabac=1 / ref=3 / deblock=1:0:0 / analyse=0x3:0x113 / me=hex / subme=7 / psy=1 / psy_rd=1.00:0.00 / mixed_ref=1 / me_range=16 / chroma_me=1 / trellis=1 / 8x8dct=1 / cqm=0 / deadzone=21,11 / fast_pskip=1 / chroma_qp_offset=-2 / threads=25 / lookahead_threads=4 / sliced_threads=0 / nr=0 / decimate=1 / interlaced=0 / bluray_compat=0 / constrained_intra=0 / bframes=6 / b_pyramid=2 / b_adapt=1 / b_bias=0 / direct=1 / weightb=1 / open_gop=0 / weightp=2 / keyint=48 / keyint_min=25 / scenecut=0 / intra_refresh=0 / rc_lookahead=40 / rc=2pass / mbtree=1 / bitrate=5120 / ratetol=1.0 / qcomp=0.60 / qpmin=0 / qpmax=69 / qpstep=4 / cplxblur=20.0 / qblur=0.5 / vbv_maxrate=7680 / vbv_bufsize=20480 / nal_hrd=none / filler=0 / ip_ratio=1.40 / aq=1:1.00
Default : Да
Forced : Нет
Аудио
Идентификатор : 2
Формат : AAC LC
Формат/Информация : Advanced Audio Codec Low Complexity
Идентификатор кодека : A_AAC-2
Продолжительность : 1 ч. 27 м.
Битрейт : 512 Кбит/сек
Каналы : 6 каналов
ChannelLayout : C L R Ls Rs LFE
Частота : 48,0 КГц
Частота кадров : 46,875 кадров/сек (1024 SPF)
Метод сжатия : С потерями
Размер потока : 322 Мбайт (9%)
Язык : Russian
Default : Да
Forced : Нет

Скриншоты




Display posts:    

Current time is: 29-Jan 15:25

All times are UTC ± 0


You cannot post new topics in this forum
You cannot reply to topics in this forum
You cannot edit your posts in this forum
You cannot delete your posts in this forum
You cannot vote in polls in this forum
You cannot attach files in this forum
You cannot download files in this forum

!ATTENTION!
The site does not give electronic versions of products, and is engaged only in a collecting and cataloguing of the references sent and published at a forum by our readers. If you are the legal owner of any submitted material and do not wish that the reference to it was in our catalogue, contact us and we shall immediately remove her. Files for an exchange on tracker are given by users of a site, and the administration does not bear the responsibility for their maintenance. The request to not fill in the files protected by copyrights, and also files of the illegal maintenance!